&title=ELIMINNATE LOCKED
&artist=ISAo.
&first=0.079
&des=noise
&lv_5=14
&des_5=noise
&inote_5=
(128){4}2h[1:1],,,,,,{2}4<7[4:1],
{1}8-4[4:1],
{4}1h[2:1],{8},,,,8/7,7,
{1}6/5h[16:9],
{8}2h[2:1]/3h[4:1],,,3-8[4:1],,,{4}7-3[16:1],
{16},,,,,,,,,,,,,,,,5/7,
,,3,,,{8}1/4,{16},6,,,{4}8h[4:1],
{1}1>4[4:1],
{4}6h[4:1],{8}7,7,8h[2:1],1,7,6,
5-8[4:1],,,6-3[16:1],,,2h[4:1],3,
{16}1,,,7/8>3[4:1],,,{8}5-8[16:1],,,{4}6/4,
{16}7,6,{8}7,{16}6,5/3,{8}6,{16}3,4,{8}5,{16}1/4,2,{8}3,
{16}8,8,{8}8,{16}7,7,{8}7,{16}4,5,{8}4,{16}4/6,3,{8}4,
{16}2,1,2,1,7,6,7,6,5,6,5,6,5,2,5,2,
3/4-8[16:1],2/4,{8}4/1h[8:1],,,6-2[16:1],{16}6,4/3,{4}1,
{8}2h[4:1],,,1,{16}2,2,4,4,3,3,5,5,
6,5,6,4,3,4,5/6,7/5,8-5[16:1],8,4-1[16:1],4,,,,,{8}5h[4:1],
,,7,{16}6,6,8,8,7,7,1,1,
7,8,7,1,1,2,3,2,4,2,5,2,{4}8h[4:1]/7<4[8:1],
,4h[4:1],{16}3,4,2,4,1,2,1,2,
7,8,7,8,{8}7/6,8/1h[4:1],{16}8,7,6,5,{8}2/3>8[16:1],1>4[16:1],
,,{4}7/6,{16}7/8,6,5,6,3/1,4,5,4,
{4}3h[8:1],{8}7/6,3/2,4-1[16:1],{16}6,5,{4}4b,
{24}7h[8:1],,,,,7,{4}6/8,{12}1/8,{24}1,2,,2,{12}3,{24}3,4,,4,
{12}5,{24}5,7,,7,{12}1,{24}1,2,,2,{12}3,{24}6,5,,5,{4}6-1[24:1],
{24}3h[8:1],,,,,5,{4}6/4,{12}7,{24}7,6,,6,{12}5/4,{24}4,3,,3,
{12}2,{24}2,8,,8,{12}6,{24}6,4,{48},,,,{16}2/3>8[8:1],3/2,{8}3/2h[8:1],,,{2}5-1[16:1],
{16}1,3,3,3,1,4,4,4,
1,5,6/4,5,1,6,5/7,6,4,2,{8}4/8-3[16:1],{4}1/2,
{2}6h[4:1]/5h[8:1],{16}1/2,6,5,6,8/7,3,4,3,
6/5,7,4/3,2,1/8,7/2,{8}6/3,6/7-2[16:1],3/4,{4}7/6h[4:1],
{1}2b,
,,,{8}5h[8:3],
{16}4,4,,4,{8}4h[2:1],{16}3,3,,3,{8}3,3h[2:1],
2,{16}2,2,,2,{8}2h[2:1],{16}1,1,,1,{8}1,1h[2:1],
8,{16}8,8,,8,{8}8h[2:1],{16}7,7,,7,{8}7,7h[2:1],
6,{16}6,6,,6,{8}6h[4:1],{16}4,5,4,5,{8}4,8h[8:5]/2h[8:5],
E
