&title=Scapegoat
&artist=Azari/Rosu
&first=0.4
&des_5=冷たい海
&lv_5=12+
&des=冷たい海
&inote_5=(160)
{1},,,
{4}3h[8:4],,8h[8:2],1-5[8:1],
{4}1x/7x,7h[8:1]/4V61[8:2],2h[8:1],4h[8:1],
{8}8,7,2,1,6/8,6,1-5[8:1]/5,2,
{4}1x/6x,4h[8:1]/6V41[8:2],8h[8:1],6h[8:1],
{8}2,3,5,6,1/7,1,1-5[8:1]/8,,
{8}1x/8x,,4h[8:1]/7h[8:1],,3/6,2,1-5[8:1]/5,,1x/7,,4h[8:1]/6h[8:1],,7/5,8,1-5[8:1],,1x/6x,,A7/B7/E7/D7/A6/B6/E8/D8,,A3/B3/E3/D3/A2/B2/E4/D4,,8,7,1/6,1,2/5,5,
{16}3/4,,6x,6x,5x,,7x,,
{4}1p5q1[16:6],E6h[48:1],E8h[48:1],5,
{8}2/6,2,3/7,3,8-4[8:1],4,8,2,
{4}5<1<5[16:8],E2h[48:1],E4h[48:1],1,
{8}2/4,2,5/7,7,4/6,3,1w5[8:1],,1x,,4,3,7,6,1w5[8:1],,1x,,6,7,3,4,1w5[8:1],,1x,,A3/B3/E4/D4/A4/B4/E3/D3,,A6/B6/E7/D7/A7/B7/E6/D6,,1-5qq4[8:6],,5pp6[8:4],,,,,,,,
{32}5x/E4,B3,B2,E2,,,,,
{4}6,1-4[8:1],2h[8:2],6h[8:2],5h[8:2],8-5[8:1],1,
{8}2/4,,3,4,3/5,4,5,4/6,7h[8:2],,5,3<6[8:1]/4<6[8:1],,,,,
{8}1/7,,5-8[8:1],,6h[8:2],,
{4}2h[8:2],8h[8:2],3h[8:2],5-8[8:1],4-1[8:1],7,
{8}6,5,4/6,5,4,3/5,2h[8:2],,4h[8:2],,
{16}8,1,2,3,5,6,7,8,
{16}4,,,3,4,,1,,5,,,3,4,,1,,
{4}6-8b[8:1],5,4-2b[8:1],5,
{16}5,,,6,5,,8,,4,,,6,5,,8,,
{4}3>1b[8:1],4,5<7b[8:1],4,
{16}2,,,4,3,,5,,7,,,1,8,,2,,3,,,7,5,,8,,2,,,5,3,,7,,
{8}1h[8:2],,4h[8:2],,2,3/6,4/7h[8:2],,5h[8:4],,,,8h[8:2],,1-5[8:1],,
{8}1/6<1V75[16:7],,E5h[48:1],,E3h[48:1],,1-3[8:1],,
{8}1,4<6[8:1],5,4,7-4[8:1],8,3,2,
{4}5x/1x>4V28[16:7],E5h[48:1],E7h[48:1],5-7[8:1],
{8}5,8>2[8:1],1,8,3-5[8:1],5,7-3[8:1]*-4[8:1],,7,,2,3,4,5,1-4[8:1]/8-5[8:1],,1/8,,6,5,4,3,1-4[8:1]/8-5[8:1],,
{4}1/8,A7/B7/E7/D7/A6/B6/E8/D8,A3/B3/E3/D3/A2/B2/E4/D4,
{8}5,6,7/4,4,3/8,8,1/2,
{16}3,3,4,,1,,
{4}2<7V14[16:7]/5,E7h[48:1],E5h[48:1],8-6[8:1],
{8}8,5>3[8:1],4,5,2-5[8:1],1,6,8,
{4}1xV75-8[16:6]/5x,E5h[48:1],E3h[48:1],4-2[8:1],
{8}4,1<7[8:1],8,1,6,4,2-6[8:1]*-5[8:1],,
{8}2,,7,6,5,4,1-5[8:1]/8-4[8:1],,1/8,,3,4,5,6,1-5[8:1]/8-4[8:1],,
{4}1/8,A3/B3/E4/D4/A4/B4/E3/D3,A6/B6/E7/D7/A7/B7/E6/D6,1-5pp5[8:6],5qq5[8:4],,,,
{32}4x/E6,B6,B7,E8,,,,,
{4}2h[8:4],4,4<8[8:2],2,5>1[8:2],7,4,2h[4:3],3,4,5pp5[8:6]`5?qq5[8:6],,,,,
{4}7h[4:3],5,5,5>1[8:2],7,4<8[8:2],2,5,8-5[8:2],5-1[8:2],1-4[8:2],4,2h[8:4],,,4,
{16}5,,,6,5,,8,,4,,,6,5,,8,,
{4}3-1b[8:1],4,5-7b[8:1],4,
{16}4,,,3,4,,1,,5,,,3,4,,1,,
{4}6<8b[8:1],5,4>2b[8:1],5,
{16}7,,,5,6,,4,,2,,,8,1,,7,,6,,,2,4,,1,,7,,,4,6,,2,,
{4}8-2[8:2],2-6[8:2],6-4[8:2],4-8[8:2],1,2,3h[8:2],1-5[8:1],
{4}1/7V53-5-7[16:8],E3h[48:1],E8h[48:1],1-7[8:1],
{8}1,5>3[8:1],6,5,7-5[8:1],5,3,1,
{4}8x>4>8[16:8]/4x,E4h[48:1],E8h[48:1],5-3[8:1],
{8}5,1<7[8:1],2,1,3-5[8:1],5,7,7,
{4}1V35>1[16:8]/8,E7h[48:1],E2h[48:1],6-4[8:1],
{8}6,8<6[8:1],1,8,2-4[8:1],4,6,8,
{4}1x<5V71[16:8]/5x,E6h[48:1],E2h[48:1],3-5[8:1],
{8}3,1>3[8:1],8,1,7-5[8:1],5,1>4[8:1],,
{32}5x,6x,7x,8x,
E
