&title=Towards The Horizon
&artist=かめりあ
&first=0
&lv_3=7
&des_3=
&inote_3=
(154.4){4},,,,{1}4h[2:1],
{4}6,6,{2}6x,
{4}3,3,{2}3x,
{4}5,5,{2}4x-8[1:1],
{4},,,,3,
3,{2}3x,
{4}6,6,{2}6x,
{4}4,4,{2}4x/5xh[1:1],
,,{1}Cf,
{4}3,3,4,4,
{1}5h[2:1],
{2}3/4,6/5,
{4}3,3,{2}4,
{4}6,6,5,5,
4,4,5,5,
{1}4bx/5bx,
{4}3/5,4,,5/3,
4,4,{2}5,
{4}6/4,5,,4/6,
5,5,{2}4,
{4}2/4,3,,3,
{2}4/2,4/6,
{1}5-1[2:1],
3-7[2:1],
{4}5b,5,5,5,
2,2,{2}2,
{4}6,6,4,4,
5,5,{2}2/4,
{4}4,4,4,4,
7,7,{2}7,
{4}3,3,5,5,
4,4,6,6,
{2}5b/4b,C,
5,E3,
4,E7,
6/5,3/4,
2,C,
4,E7,
5,E3,
3/4,6/5,
{1}8b/2b,
,6h[1:1],
,1-5[4:5],
{2},,2/4,
4/6,
6/8,8/2,
{1}1b,
Ch[2:1],
{4}2/1,2/1,{2}2/1,
{4}3/4,3/4,{2}3/4,
{4}6/5,6/5,7,7,
5,5,{2}4/6,
{4}7/8,7/8,{2}7/8,
{4}6/5,6/5,{2}6/5,
{4}3/4,3/4,2,2,
4,4,{2}5/3,
{4}7b,7,7,7,
5,5,5,5,
6,5/4,,5/4,
3,4,5,6,
{1}7b/2,
1b/6,
{4}5/4,5/4,6/3,6/3,
{1}7/2-6[2:1],
{2}Cf,E7/E8/B7/B8,
E2/E3/B2/B3,{4}5,5/4,
{2}4x,B5/E5/B4,
B8/B1/E1,E7/E3,
{4}4/5,Cf,{8},,,,3,
3,{4}3,{8}5,5,{4}5,
{8}4,4,{4}4/5,{8}6,6,{4}6/4,
{8}5,5,,1b-5[8:15],
E
&lv_4=13
&des_4=albertoBradish
&inote_4=
(154.4){4},,,,{2}4xh[2:1],
{4}E8/B8/B7,B6/E6/B5,
4h[4:1],3,{8}6h[4:1],5,{4}5,
3h[4:1],4,{8}5h[4:1],6,{16}6,,,4,
4x>6[2:1],,,5,{4}5xh[2:1],,,{48}E6,
E5,{24}E4,{4},{16},,{24},{48}E8,E1,{24}E2,,,,,,,,,,,{4}5h[4:1],
6,{8}3h[4:1],4,{4}4,
6h[4:1],5,{8}4h[4:1],3,{16}3,,,5,
5x<3[2:1],,,4,{4}4xh[2:1],,,{48}E4,
E5,{24}E6,{4},{16},,{24},{48}E2,E1,{24}E8,,,,,,,,,,,{4}6bx/5bh[4:3],
B1/B2,{8},6x,{4}B7/B8,
{8}6x/4h[4:3],6,{4}B1/B2,{8},6x,{4}B7/B8,
3x/4h[4:3],B8/B7,{8},3x,{4}B2/B1,
{8}3x/5h[4:3],3,{4}B8/B7,{8},3x,{4}B2/B1,
6x/5p3[2:1],B1/B2,{8},6x,{4}B7/B8,
{8}6x/4p2[2:1],6,{4}B1/B2,{8},6x,{4}B7/B8,
{8}5bx/4bx,4/5,3/6,6/3,7/2,7/2,{16}8x,1x,8x,1x,
{1}Cfh[1:1],
{16},,,,8bx/1xh[16:3],,,2h[16:3],,,{8}3,4/5,6,
{4}Cf,{8}4/3,2,5/6,7,{4}1-5[8:1]/8-4[8:1],
Cf,{8}8x/1x,7,6/1,2,3/5,4,
{4}Cf,{8}7x/5,5,2x/4,4,{4}5-1[8:1]/4-8[8:1],
Cf,{16}1bx/8xh[16:3],,,7h[16:3],,,{8}6,5/4,3,
{4}Cf,{8}5/6,7,4/3,2,{4}8-4[8:1]/1-5[8:1],
Cf,{8}1x/8x,2,3/8,7,6/4,5,
{16}5xh[16:3],,,4xh[16:3],,,{8}3x,{2}1<4[16:3],
{8}2b,{16}4,3,{8}4,5,{16}6,5,{8}6,{4}7/5,
{8}7,{16}5,6,{8}5,4,{16}3,4,{8}3,{4}2/4,
{8}6,{16}4x,5x,3xV57[8:3],,,8,,,{8}8,{4}1,
{8}2,{16}8x,1x,7xV13[8:3],,,4,,,{8}4,{4}5,
{8}7b,{16}5,6,{8}5,4,{16}3,4,{8}3,{4}2/4,
{16}2,4,3,4,{8}3,{16}6,5,6,5,{8}7,{4}7/5,
{8}3,{16}5,4,6>2[8:3],,,1,,,{8}1,{4}8,
{8}7b,{16}3,4,{8}3,2b/5,{16}4,6,4,6,{4}4-8[8:1],
{8}Cf,{16},,,,5x,6x,{8}7h[4:1],{16}1x,2x,{8}3h[8:1],7,
{1}7-2-8-6[8:5]/3-6-4-2[8:5],
{8}5xh[2:1],{16},,,,B5,C,{2}B1f,
{16}7h[16:3],,,2h[16:3],,,{8}5h[8:1],{2}4-1[8:1]*-7[8:1],
{8}C,{16},,,,4x,3x,{8}2h[4:1],{16}8x,7x,{8}6h[8:1],2,
{1}2-7-1-3[8:5]/6-3-5-7[8:5],
{8}4xh[2:1],{16},,,,B4,C,{2}B8f,
{16}2h[16:3],,,7h[16:3],,,{8}4h[8:1],{4}5w1[8:1],5x,
{1}Cf,
{8},E1,{16}E5,E4,{8}E3,E7/E6,E5,E2/E3,E1,
Ch[4:1],{16},,,,B2/B3,B7/B6,{2}Ch[2:1],
{8},E6,E5,E4,{16},,,,E7,E8,E1,E2,
{8}E3,{16},,,,E3,E4,{2}E5,
{8},E1,{16}E5,E6,{8}E7,E3/E4,E5,E8/E7,E1,
Ch[4:1],{16},,,,B7/B6,B2/B3,{8}Ch[4:1],{16},,,,8x,1x,
{2}8x<3b[16:3],1x>6b[16:3],
{1}1b,
{4},3/4h[8:3],8h[4:1],{16}4x,5x,6x,7x,
{8}8bx/3b,1/2,{16}2,1,2,8,{8}3/4,5/6,{16}5x,4x,3x,2x,
{8}1bx/6b,8/7,{16}7,8,7,1,{8}6x-8[8:1],6,5x-1[8:1],5,
{4}6x>2[4:1],2x<6[4:1],{8}4x,3x,2x-5[8:1],2x,
8pp6[2:1],8,{4}8bx/3h[2:1],{16},,,,,,,,6,
5,6,5,{8}7,{16}3,4,3,4,{8}2,{16}7,8,7,8,
{8}6,5,{16}3,4,3,4,{8}2-5[8:1],2,1p6[8:3],1,
{2}4bh[4:1],{16}5,6,5,6,4,7,4,7,
{2}3bx-6[8:1]/8bx-5[8:1],{16}1x,8x,7x,6x,5x,4x,3x,2x,
{8}1b/6b,8/7,{16}7,8,7,1,{8}6/5,4/3,{16}4,5,6,7,
{8}8b/3b,1/2,{16}2,1,2,8,{8}3-1b[8:1],3,4-8b[8:1],4,
{4}3<7[4:1],7>3[4:1],{8}5,6,7-4[8:1],7,
1qq3[2:1],1,{4}1b/6bh[4:1],{16},,,,8x,7x,6x,5x,
{8}3b/4bV68[8:3],,,8,1,2,3,4,
5V31[8:3],,,1,8,7,6,5,
4/3,3/4,5/2,2/5,1/6,1/6,{16}8,7,8,7,
{8}2b,Cfh[8:7],{1},{32}E1,
B8,B7,E7,,,,,E5,B4,B3,E3,,,,,E8/E2,B7/B2,B6/B3,E6/E4,,,,,{16}Cf,
,,1x/8x,,,4,6,{8}4,5-1[8:1],,Cf,
{16},,,,2,4,{8}2,5/6,8,5/6,3,
{16}1h[16:3],,,3h[16:3],,,{8}5,{16}8h[16:3],,,6h[16:3],,,{8}4,
{4}4w8[8:1],4b`Cf,{16},,1,8,1,8,{8}1,
{16}5h[16:3],,,4h[16:3],,,7,6,{8}5,5/4,{4}4/3-8[8:1],
{16}3b/5,,,7,,8,{8}8,{16}2,4,3,7,5,6,3,4,
{8}1b,{16}7,7,{8}8,6bpp2[8:15]/5bqq1[8:15],
E
&lv_5=14
&des_5=albertoBradish
&inote_5=
(154.4){4},,,{16},,{32},E3,B3,B4,
{8}5xh[4:3]/E5,{16},,,,E2,E1,E8,E7,E6,E5,E4,E3,E2,E1,
{4}5V71[4:1],1,{8}4V28[4:1],8,{4}8,
{8}6h[8:3],{16}E7,E8,E1,E2,{8}E3,4xh[8:3],{16}E3,E2,E1,E8,E7,E6,
2h[2:1],,,4,{4}4>5[2:1],,2x,
{32}E1,B8,,,,,,,,,,,,,,,E5,B4,,,,,,,,,,,,,,,{4}4V28[4:1],
8,{8}5V71[4:1],1,{4}1,
{8}3h[8:3],{16}E3,E2,E1,E8,E7,E6,E5,E4,{8}1xh[4:1],{16},,,,7h[2:1],
,,5,{4}5<4[2:1],,7x,
{32}E1,B1,,,,,,,,,,,,,,,{8}B8/B7,B3/B4,B6/B5,B1/B2,
{4}Cf,{8}2x/4x,{16}4,3,,3,{8}4,{4}2-5[8:1],
2x/8,{8}7/5,{16}5,6,,6,{8}5,{4}7-3[8:1],
7x<4[4:1],4>1[4:1],1<6[4:1],6x,
{32}E5,E4,{16}E3,,,{4}7/8,{32}E1,E8,{16}E7,,,{4}2/1-5[8:1],
1x/7,{8}7/5x,{16}5,6,,6,{8}5,{4}7-4[8:1],
{8}7x/1,3,2,{16}4,3,,3,{8}4,2,{24}7x/1,6x,5x,
{8}4x/8,4/8,6/2,6/2,{16}8,1,5,3,7,4,8,2,
{2}1bs5[4:1],Ch[4:1],
{48}E2f,E3,E4,E5,,,,,,,,,{8}6x/5x,8/7,{16}2,4,2,7,5,7,2,4,
{48}E5f,E6,E7,E8,,,,,,,,,{8}8/7,5/6,{16}1/8,2,3,4,{4}5/8-4[8:1],
8/3`Cf,{8}2/1,4/3,{16}5/6,6x,,4,{8}5/4x,3/4,
{48}E5f,E6,E7,E8,,,,,,,,,{8}1/2,3/4,{16}5/2,6,7,8,{4}1h[4:1]/3h[4:1],
Cf,{8}3/4,1/2,{16}7,5,7,2,4,2,7,5,
{48}E5f,E4,E3,E2,,,,,,,,,{8}1/2,3/4,{16}1/2,8,7,6,{4}5/1-5[8:1],
1/6`Cf,{8}7pp4[8:3],7,7x/5,4,{4}3,
{16}2x/4x,,,7/5,,,6,5,6/4h[4:1],7,8,1,2,3,4,5,
{8}6/2b,{16}3,4,3,5,4,6,{8}5-1[8:1],6,{4}5x/3x,
{8}3x/1x,{16}3,8,2,7,1,6,{8}8-5[8:1],5-2[8:1],{4}8x,
{8}1<5[4:1],{16}1x,3x,3xV17[4:1],,,3,,,{8}4,{4}5>2[8:1],
{8}5x/6x,{16}8,7,{8}6,{16}1,1,8,2,7,3,{4}6x/4x,
{8}7b/1b,{16}7,5,6,4,5,3,{8}4-8[8:1],3,{4}4x/6,
{16}5,8,6,1,7,2,8,3,1x-5[8:1],8x,{8}7x-3[8:1],1,7,
8x>4[4:1],{16}8x,6x,6xV82[4:1],,,6,,,{8}5,4x,3x,
4/2b-5[8:1],{16}3,1,{8}2,7b-4[8:1],{16}6-1-4[4:1],8,{8}7,,,Cf,
{16},,,,2/6,3/7,{8}8/4,{16}7/3,6/2,{8}1/5V71b[4:1],7/3,
{4}5/1<4[16:5],{32}2,3,{16}4V68b[4:1],,,{8}1,2,3,4,
{16}5/1x,,,7/3,,,3,4,{2}5/1-5[8:1],
{16}4x/6x,,,5/2,,,6,5,8,5,6,4,5,3,4,1,
{32}B4,B3,{16}B2,,,,,7/3,6/2,{8}1/5,{16}2/6,3/7,{8}8/4V28b[4:1],2/6,
{4}4/8>5[16:5],{32}7,6,{16}5V31b[4:1],,,{8}8,7,6,5,
4/8x,{16},,,,6,5,{8}4/8-4[8:1],{16},,,,1,2,
3/5,,,6/4,,,{8}3/5,{16}5x,6,7,8/1x,2,3,7x/4,6,
{8}5/1bh[8:15],{24},,,,,,E3,B3,B4,{2}E5,
{8},8,{24}E8,B7,B6,B5,,,{8}B2/E3,B4/E5,B6/E7,B8/E1,
3h[4:1],{16},,,,6,5,{2}4h[8:7]/2<6[16:3],
{8}E6,E5,E4,E3,{16},,,,4/2,5,6,7,
{8}4/8bh[8:17],{24},,,,,,E7,B6,B5,{2}E5,
{8},1,{24}E2,B2,B3,B4,,,{8}B7/E7,B5/E5,B3/E3,B1/E1,
{4}5xh[4:1],{16}6,5,6,5,7,4,7,4,8,3,8,3,
{32}8b/4x,7,6,5,4,3,2,1,8b,7,6,5,4,3,2,1,8/4b,5,6,7,8,1,2,3,4b,5,6,7,8,1,2,3,
{1}4b/8bw4[4:3],
{4},3>8[8:1]/7<4[8:1],3/7,{32}4/8,5x/1,6x/2,7x/3,8x,1x,2x,3x,
{8}4x/8bx<5[8:1],5x-1[8:1],{16}2,3,{8}4,4x>1[8:1],1x-5[8:1],{16}5,6,{8}7,
8,{16}7,4,7,3,7,2,{8}6-1[8:1],2-5[8:1],6,2,
{64}1b,E5f,8,E4,7,E3,6h[32:5],E2,,,,,,,,,,,,,,,,,{16}2,2,{8}8<5[8:1],1,{16}8/4,3,2,1,
{8}8h[8:1]/4qq1[2:1],{24}5x,6x,7x,{4}8x`A4f,{16},,,,,,,,6,
5,6,8,{8}6,{16}3,4,3,1,{8}3,{16}7-4[8:1],8,7,5,
{4}7b,{16}3,6,2,5,{8}1-4[8:1],5-8[8:1],1,5,
{64}4b,E8f,3,E7,2,E6,1h[32:5],E5,,,,,,,,,,,,,,,,,{16}6x,6x,4,8,5,6,5,1,5,6,
{32}1b-5[8:1]/5b-1[8:1],4/8,3/7,2/6,,,,,{4}5x/1x,{16}7b,8,5,3b,4,1,{32}5b,6,7,8,
{8}1b>4b[8:1],4x-8b[8:1],{16}7,6,{8}5h[16:1],5x<8b[8:1],8x-4b[8:1],{16}4,3,{8}2h[16:1],
1b,{16}2,5,2,6,2,7,{8}3-8[8:1],7-4[8:1],3,7,
{64}8b,E5f,1,E6,2,E7,3h[32:5],E8,,,,,,,,,,,,,,,,,{16}7,7,{8}1>4[8:1],8,{16}1/5,6,7,8,
{8}1h[8:1]/5pp8[8:3],{24}4x,3x,2x,{4}1x`A5f,{16},,,,4/8x-4[8:1],3/7,2/6,1/5,
{8}8bx/4bx`Cf,{16},,,,5,4,{8}6<1[8:1],5,4q8[8:1],3,
2,{16},,,,2,2,{8}1,{16}8,1,{8}7,2/6,
1/5,5/1,3/7,3/7,{16}2,8,4,7,1,5,{24}6x/2x,7x/3x,8x/4x,
{2}5/1bs5[8:5],{4}1-5b[8:1],1,
Cf,{48}8xpp3[8:3],A7,D7,A6,D6,A5,D5,A4,D4,A3,,,{4}8x<5[8:1],8x,
{8}4b-8[8:1],{16}3,5,{8}4,{16}7,7,{8}1b,3b/1b-6b[8:1],,7/A1f,
{16},,,,6,6,5,5,{48}E7,B7,B8,E1,,,E5,B4,B3,E3,,,{16}8xp3[8:1],3,7,1,
6`Cf,,,5x,,,{8}4,{16}3/1,8,7,6/4,3,2,1/7,6,
{32}5/1w5[8:1],2x,3x,4x,5x,6x,7x,8x,{4}1bqq3b[8:3]`Cf,{2}1x>4[8:1],
{8}5-1[8:1],{16}6,4,{8}5,{16}2,2,{8}7/8-4[8:1],4/5,{4}8b/2,
{8}7b/5b,{16}3,4b/2b,,8,8,1,7b,3,5,2b,8,4,6b,2,
{8}4b,{32}1x-6b[8:1]/5x-2b[8:1],2/6,3/7,4/8,{8}5/1,5bxqq2[8:15]/1bxqq6[8:15]`Cf`E6`E2,
E
&lv_6=1
&des_6=
&inote_6=
(154.4){4},
E
