&title=Analys
&artist=HAYAKO
&first=0.11
&des_5=HPTuse
&lv_5=14
&des_6=HPTuse
&lv_6=ADX
&des=HPTuse
&inote_5=(170){4},{8},,,,,,2x/1h[4:1],
2,2,6x/5h[4:1],6,6,8x/7h[4:1],8,
8,4x/3h[4:1],4-1[8:1],4,{32}5x-8[8:1],6x,{16}7x,{32},,,,4x,3x,{16}2x,,,{8}3x/4h[4:1],
3,3,7x/8h[4:1],7,7,5x/6h[4:1],5,
5,1x/2h[4:1],1-4[8:1],1,{32}8x-5[8:1],7x,{16}6x,{32},,,,1x,2x,{16}3x,,,{8}4,
4-1[8:1],4,5,5-8[8:1],5,6,6-3[8:1],
6,7,7-2[8:1],7,8w4[8:1],8,{4}8,
{16}5,3,5,3,5,3,6,4,6,4,6,4,5,3,6,4,
5,3,6,4,5,3,6,4,7,2,6,3,7,2,6,3,
7,2,6,1,8,2,7,3,6,4,5,3,6,2,7,1,
{4}8,{16}8x,8x,8x,8x,{8}8x,8x,{4}8xw4[8:1],
8b`Cf,{8}3x/5x,7,6/4,2,5/3,7,
6/4,B3/E3/B2,8/2,6,7/1,3,{4}4/8-6>5[16:3],
8/4-2<1[16:3],4/8-5[16:3],8/4-1[16:3],4/8-6>5[16:3],
8/4-2-8[4:1],4/8z4b[16:3],{16},,,,1x-5[8:1],8x/4x,7x/3x,6x/2x,
{4}5x/1x,{8}2x/8x,B4/B3/E4,7/1,E6/B6/B5,8/2,B4/B3/E4,
7/1,E8/B7/B8,5/3,B1/B2/E2,6/4,E8/B7/B8,5/3,E7/B6/B3/E3,
{16}1-5[16:3],2x,{8}3x,{16}A1/8-4[16:3],7x,{8}6x,{16}A8/1-5[16:3],2x,{8}3x,{4}A1/8-6[16:3],
8-2[16:3]*-4[16:3],8,{8}C/E3,E1/D2,{32}A8,D8,A7,D7,A6,D6,{16}A5,
{4}3h[8:1]/E5/D5/A4,8x/1v4-2[8:3],{8}1,{16}7,7,,8,{8}8,
8h[4:1],1h[4:1],,,8-5[8:1],{16}2,2,,1,{8}1,
{4}3x-8[16:3],3x-6[16:3],3xv8-2v7b[2:1],3xv6-4v3[2:1],
{16},,,,,,,,A8,A1,A2,A3,A4,A5,A6,A7,
{4}C/A8f,5v8-6[8:3],{8}5,{16}2,2,,3,{8}3,
3h[4:1],6h[4:1],,,5-1[8:1],{16}7,7,,6,{8}6,
5,5b,B7/B1,2b,B8/B6,4b,E7/E1,2b,
1,5v2[8:1],1-6[8:1],5,{4}1,{16}4,4,4,4,
{8}4xh[2:1],A8,A1,A2,3xh[2:1],A7,A8f,A1,
2xh[2:1],A6,A7,A8,1xh[2:1],A5,A6,A7,
8xh[2:1],A4,A5,A6,7xh[2:1],A3,A4f,A5,
6xh[2:1],A2,A3,A4,5xh[2:1],A1,A2,A3,
4xh[2:1],A8,A1,A2,3xh[2:1],A7,A8f,A1,
2xh[2:1],A6,A7,A8,1xh[2:1],A5,A6,A7,
8bz4[8:13],{16},,,,1,1,{4}1,{8}8,1,
{16}7,,,2,,,{8}8,{2}1,
{1}3bxv2V85[8:5]/6bxv7-1[8:3],
5bxv2v7[16:9]/1bx-3<4-6[2:1],
{2}7bxv2[8:1]/6bx-3[8:1],3bxv6[8:1]/2bx-7[8:1],
{4}5bx-1[8:1]/4bx-8[8:1],5bx-7[8:1]/4bx-2[8:1],{2}4bx-1[8:1]/5bx-8[8:1],
{4}2/7-5[8:1],3/7-1[8:1],4/7-5[8:1],3/7-1[8:1],
2-4[8:1],8/2-8[8:1],7/2-4[8:1],6/2-8[8:1],
5-7[8:1],2/5-3[8:1],1-7[8:1],5/1-3[8:1],
6-8[8:1]/1v4[8:1],1/6-3[8:1],{2}6v1[8:1],
{16}2,1,2,1,{8}2,8b,{16}6,5,6,5,{8}6,3b,
{16}1,2,8,3,7,4,6,5,6,4,7,3,8,2,1,2/8,
{4}7/3,{8}5/4,5/4,{32}4/5,,,,,3,D3,A2,{8}D2,{32}8,D8,A7,D7,
,,4,D4,A3,D3,,,1-5p7[8:3],B1,C,B5,,,,,{4}3-6[8:1],Cf,
{16}6,7,6,7-1b[8:1],6,7,6,7,{8}6qq3[8:7],,,8,
8,8,7b-4[8:1],7,{2}7v2b[8:1]*-1b[8:1],
{8}1-7[8:1],2-6[8:1],1pp4[1:1]*-4b[8:1],2,,,,5,
6,6,7,7v2[16:3],{2}8-5[8:1],
{16}3,6,4,5,3qq8[8:9]*>1b[8:1],6,4,5,{8}3,,,7,
6,5,{4}4-7[8:1],{2}4>1[16:3],
{16}8,7,6,4,3,2,7,6,5,3,2,1,7,6,5,4,
4,4,4,4,4,4,{8}4,C,E5,E1f,C,
{4}4/5,3<6[8:1]/7-4[8:1],7>2[4:1],4-8b[8:1],
4v1-3[8:3],7-5[8:1],{2}7pp1qq7b[8:3],
{4},6>3[8:1]/2-5[8:1],2<7[4:1],5-1b[8:1],
5v8-6[8:3],2-4[8:1],{2}2-7b[8:1],
{16}4x/5x,3x/6x,{8}2x/7x,{16}D7/A3,A6/D4,{8}D6/A4,{4}7x>2[8:1]/3x-8[8:1],3<6[4:1],
8-4b[8:1],8v5-7[8:3],3-1[8:1],3,
{16}1,2,3,4,6,5,4,3,5,6,7,8,3,2,1,8,
7x,3x,7x,3x,7x,3x,{8}7bx,5b,1b,3b-1b[8:1],8b,
3v8[16:3]/8>4[16:3],,,,,6/4,7/5,6,
{4}8/6bpp8b[16:3],6<2[16:3]/8p4[16:3],{8},,,,6/3-5b[8:1],
6,{4}6-8v5[8:3]/3-1[8:1],3,{8}B1/A1,B2/A2,
{4}5/B3/A3,5/7,2/8,{8}3/6-4b[8:1],3,
{4}3-1v4[8:3]/6-8[8:1],6,{8}A8,B8,{4}C,
4,4/2,7/1,6/5-8[8:1],
5-7-3-1[8:3],3/5,4-8[16:3],5/4,
5-1[16:3],5/6,6-8b[8:1],6v1[16:3]/1<5[16:3],
{8},,,3/5,2/4,3,{4}1/3bqq1b[16:3],
3>7[16:3]/1q5[16:3],{8},,,,3/6-4b[8:1],3,
{4}6-8[8:1],6,{8}B8/A8,A7/B7,{4}4/A6/B6,
4/2,7/1,{8}6/3-5b[8:1],3,{4}6-8v5[8:3]/3-1[8:1],
3,{8}A1,B1,{4}C,5,
5/7,2/8,3/4-1[8:1],5-8[8:1],
{8},,1b,1b,{16}1b,,,5b/6b,,,{8}4b/3b,
{16},2b/1b,,,7b/8b,,,4b/3b,,,{8}6b/5b,{16},7b/8b,,,1b/2b,
,,6b/5b,,,{8}4b/3b,E7/D7,E3/D3,{4}C,
{8}7x/8h[4:1],7,7,3x/4h[4:1],3,3,1x/2h[4:1],1,
1,5x/6h[4:1],5-8[8:1],5,{32}4x-1[8:1],3x,{16}2x,{32},,,,5x,6x,{16}7x,,,{8}7x/8h[4:1],
7,7,3x/4h[4:1],3,3,1x/2h[4:1],1,
1,5/6h[4:1],5-8[8:1],5,{32}4x-1[8:1],3x,{16}2x,{32},,,,5x,6x,{16}7x,,,{8}5,
5-8[8:1],5,4,4-1[8:1],4,3,3-6[8:1],
3,2,2-7[8:1],2,1-4[8:1]*-6[8:1],1,{4}1,
{16}5,5,5,5,5,5,5,5,5,5,5,5,5,5,5,5,
4,6,4,6,4,6,4,6,4,6,4,6,4,6,4,6,
4,6,7,8,1,2,3,4,7,6,5,4,3s7b[8:1],8,1,2,
3,Cf,
E
E
&inote_6=(170){4},{8},,,,,,6h[4:1]/D4,
E3,D2,3h[4:1]/D6,E7,D8,6h[4:1]/D4,E3,
D2,3h[4:1]/D6,E7,D8,
E
