&title=114514
&artist=Vicho
&first=0
&des_7=浩二哥
&lv_7=奏
&des=浩二哥
&inote_7=(180){4},,,,
||1=G
{8}1h,1h,A4,,5$,1h,A4,,
1h,1h,A4,,5$,1h,A4,,
1h,1h,A4,,5$,1h,A4,,
1h,1h,A4,,5$,1h,A4,,
1h,1h,A4,,5$,1h,A4,,
1h,1h,A4,,5$,1h,A4,,
1h,1h,A4,,5$,1h,A4,,
1h,1h,A4,,5$,1h,A4,,
{8}1h[8:2],,A4,,5$,A1,A4,,
1h[8:2],,A4,,5$,A1,A4,,
1h[8:2],,A4,,5$,A1,A4,,
1h[8:2],,A4,,5$,A1,A4,,
A1h[8:2],,A4,,5$,A1,A4,,
A1h[8:2],,A4,,5$,A1,A4,,
A1h[8:2],,A4,,5$,A1,A4,,
A1h[8:2],,A4,,5$,A1,A4,,
{4}1-4[8:1],4,5-1[8:1],,
4-1[8:1],1,5v4[8:1],,
1-4[8:1],4,5-1[8:1],,
4-1[8:1],1,5v4[8:1],,
1v4[8:1],4,5v4[8:1],,
1v4[8:1],4,5v4[8:1],,
1v4[8:1],4-1[8:1],5v4[8:1],,
1v4[8:1],4-1[8:1],5v4[8:1],,
||1=C
{16}1b/Cf,,,,5,,1,,2,,,,3,2,1,,
2,,,,5,,5,,1,,2h[16:4],,,,5,,
1,,,,5,,5,,1h[16:3],,,2h[16:3],,,5,,
1,,,,,,{24}7x,1x,7x,{16}6xh[16:4],,,,5,,,,
6,,,,5,,5,,1,,2,,5,,1,,
,,,,5,,5,,1,,2,,5,,1,,
3b,,2b,,1b,,3b,,2b,,1b,,D3f,,2xbqq2[8:4]*pp2[8:4],,
{4},,,,
{16}6,,,,3,,3,,,,,,,,,,
,,,,5,,,,2,,,,1,,,,
2,,,,3,,3,,,,,,4,,3,,
,,,,,,,,7,,,1,,,2,,
2,,,,1,,1,,,,,,7,,1,,
2,,,,1,,1,,,,,,7,,1,,
3,,,,5,,5-8b[8:6],,,,,,,,,,
,,,,,,,,,,5,,6,,7,,
1,,,,1,,1,,1,,,,1,,7,,
,,5,,5,,,,,,,,5,,5,,
3,,,,3,,3,,,,3,,2,,1,,
2,,3,,5x`6x,,,,,,,,5,,,,
6,,,,7,,1,,,,,,3,,,,
4,,,,3,,3,,3,,,,1,,6,,
5,,,,2,,1,,,,,,1,,1,,
{12}3,,3,,3,,{16}3,,,,1,,7,,
||1=G
{8}Cf/A1h[8:1],,A1h[8:1],,A4h[8:2],,,A5h[8:2],
,,A1h[8:1],,A4h[8:3],,,,
1h,,1h,,4h,,,5h,
,,1h,,4h,,A1,A1,
A4,A5,A1,A4h[8:6],,,,,
{16},,,D6,,,A5,,A3,,A1h[16:2],,,,D7,,
A6,,D7,,A7,,A1h[16:2],,,,D6,,A6,,
A4,,A2,,A4,,A1,,A7h[16:2],,,,A1,,D2,,A2,,
||1=C
{8}Cf/1xh,1xh,1xh,1xh,,,1xh,1xh,
7x,7x,7x,7x,,,7x,7x,
5xh,3xh,1xh,,1xh,5xh,D6,5xh,
{16},,D6,6x,{8}1x,6x,4x,3x,2x,1x,
{16}5xh,,5xh,6xh,1xh,,6xh,,{8}4xh,4xh,3xh,{16}2xh/5xh,6xh,
{8}5xb,5x,1x,,2x,5x,1x,,
1xh,1xh,1xh,1xh,,1xh,1xh,{16}1xh,1xh,
7xh,,2xh,,1xh,,6xh,7xh,2xh,,1xh,,{24}1xh/7x,6x,5x,4x,3x,2x,
||1=G
{8}Cf/1x,1x,4x,,5x,1x,4x,,
1$,1$,4$,,5$,1$,4$,,
1x,1x,4x,,5x,1x,4x,,
1$,1$,4$,,5$,1$,4$,3$,
1x/4xh[8:1],1x,4x,,5x,1x,4x,,
1$,1$,4$,,5$,1$,4$,,
1x,1x,B1/4x,B1/5x,B4/1x,B5/4x,B1/1x,B4/4x,
4x,5x,B1/1x,B1/4x,B4/5x,B5/1x,B1,B4,
{8}1h[8:2],,A4,,5$,A1,A4,,
1h[8:2],,A4,,5$,A1,A4,,
1h[8:2],,A4,,5$,A1,A4,,
1h[8:2],,A4,5$,A1,A4,A2,D7,
A6/A1h[8:2],,A4,,5$,A1,A4,,
A1h[8:2],,A4,,5$,A1,A4,,
1x,4x,3x,5x,2x,{16}4x,3x,4x,,3x,,
{8}1,1,4,5,1,4,{16}1,2,4,5,
6b^8qq6[8:3],,,,,,,,,,,,E
