&title=The Last Page
&artist=ARForest
&first=0.01
&des=AClrt_
&lv_5=14
&inote_5=(195.01)
{1},,,,,,
{16}2xh[4:1],,,,A3,E4,B4,B5,E6,,,,
7xh[4:1],,,,E8,B8,B1,E2,A2,,,,
3xh[4:1],,,,E3,B3,B4,B5,E6,,,,
6xh[4:1],,,,E7,B7,B8,B1,E2,,,,
2xh[4:1],,,,E4,E5,E6,E7,E8,,,,
7xh[4:1],,,,E6,E5,E4,E3,E2,,,,
1xh[4:1],,,,A4,A5,A6,A7,A8,,,,
8xh[4:1],,,,A5,A4,A3,A2,A1,,,,
1x/8x<4[2:1],,,,2h[8:1],,,,3h[8:1],,,,
3>7[2:1],,,,4h[8:1],,,,5h[8:1],,,,
6<2[2:1],,,,5h[8:1],,,,4h[8:1],,,,
3<7[2:1],,,,2h[8:1],,,,1h[8:1],,,,
8>4[2:1],,,,7h[8:1],,,,6h[8:1],,,,
5<1[2:1],,,,4h[8:1],,,,3h[8:1],,,,
2>6[2:1],,,,1h[8:1],,,,8h[8:1],,,,
7<3[2:1],,,,8h[8:1],,,,1h[8:1],,,,
2xV41[4:3],,,,4s8[2:1],,,,,,,,,,,,,,,,
3h[2:1],,,,6h[4:1],,,,,,,,4,,5,,
3/6h[4:1],,,,8h[4:1],,,,1h[4:1],,,,
3<1[4:3],,,,,,,,,,,,,,,,5,,,,2,,,,3>6[4:4],,,,,,,,,,,,4,,,,3,,,,2,,,,
1bx/8bh[4:3],,,,,,6x,,,,,,4x,,,,3xb/7x^4q1[4:3],,,,2,,,,1,,,,,,4,,,,,,
5h[4:1],,,,8h[4:1],,,,2h[4:1],,,,4h[4:1],,,,3h[4:1],,,,5h[4:1],,,,
1h[4:1],,,,7h[4:1],,,,2h[4:1],,,,8h[2:1],,,,,,,,,,,,1h[2:1]/7h[2:1],,,,,,,,,,,,
{1}1>7[1:4],,,
{4}B2,,,B6,,,B4/B8,,,E2/E7,,,2/8<2[1:3],3,3,2,1,1,8,7,7,6,5,5,4,3,3,2,
18,18,B3/B6/B4/B5,7,
{8}B4,B5,
{16}E3,B2,B1,E1,E7,B6,B5,E5,C,,B2/B6,,E3/B3/E4/E7/B7/E8,,,,
6x,,5,,4,,3,,3h[4:1],,,,5,,5h[8:1],,,,4,,6h[4:1],,5,,4,,3,,6,,5,,4,,3,,
B6,,,,B2/E3,,,,C,,,,B7/E7,,4,,4^2[8:1],,,,5h[4:1],,,,6h[4:1],,,,7,,,,
1/8V64[2:1],,,,3,,,,2,,,,1pp5[4:3],,,,E6,,,,E7,,,,E8f,,,,,,,,4,,,,
3h[2:1],,,,,,,,,,,,5h[8:1],,,,6^8[4:1],,,,3h[8:1],,,,4-1[4:1],,,,
B6,,,,E6,,,,5xs1[1:1],,,,,,,,,,,,,,,,,,,,,,,,
2-5[4:2]/8z4[4:2],,,,,,,,,,,,,,,,3h[8:3]/6h[8:3],,,,,,,,
4/5V71[4:1],,,,1,,2,,3,,,,5/4V28[4:1],,,,8,,7,,6,,,,
4/5V71[4:1],,,,1,,2,,3,,,,5/4V28[4:1],,,,8,,7,,6,,,,
4x/5x<1[4:1],,,,1V75[4:1],,2,,3,,4,,4x>8[4:1],,,,8V24[4:1],,7,,6,,5,,
5x<1[4:1],,,,1V75[4:1],,2,,3,,4,,4x>8[4:1],,,,8V24[4:1],,7,,6,,5,,
5x<4[2:1],,,,E1,E2,E3,E4,E5,,,,
1x>8[2:1],,,,E5,E6,E7,E8,E1,,,,
5x<4[2:1],,,,E1,E2,E3,E4,E5,,,,
1x>8[2:1],,,,E5,E6,E7,E8,E1,,,,
5x<4[2:1],,,,D1,D2,D3,D4,D5,,,,
1x>8[2:1],,,,D5,D6,D7,D8,D1,,,,
5x<4[2:1],,,,D1,D2,D3,D4,D5,,,,
1xb,,,,2xb,,,,3xb,,,,4bV28-6<4[1:3]/6b,,,,
{4},,E7,E6,E5,E4,,,{8}D1/E1,,,D8/E8,,,D7/E7,,,D6/E6,,,D5/E5,,A3/B3,,A6/B6,,
Chf[4:6],,E1,,E8,,E7,,E6,,E5,,E3/E7/B2/B6,,,,
3h[4:1],,5h[4:1],,6h[4:1],,7h[4:1],,4h[4:1],,3h[4:1],,2h[4:1],,
8h[8:1],,1h[8:1]/7h[8:1],,2h[8:1]/6h[8:1],,
3pp8[1:1]/5qq1[1:1],,,,,,,,,,,,
2/7,,
{16}1,8,1,8,2,7,2,7,3,6,3,6,4,5,4,5,4,5,4,5,
4-8[21.7#17:1]*-8[21.7#17:1],,,,
{4},,,,,,,,
5,6,7,
{16}1xb<5[4:1]/8xb,2,3,4,5x>5b[2:1],,,,,,,,
5xbV31-7-5[4:2],4,3,2,1x,,,,,,,,1xb>1[2:1],2,3,4,5x,,,,,,,,3b,4,5,6,7x,8,1,2,
3x/6x,,,,4b>6[2:1]/8b,7,6,5,4xqq8b[4:3]/2,,,,,,,,,,,,5,,,,6,,,,
7/1b,2,3,4,51,8,7,6,5/2,,34,,2b,,8,1,7,,56,,4,,35,,
8xb>4[4:1]/1xb,7,6,5,4x<4b[2:1],,,,,,,,
4xbV68-2-4[4:2],5,6,7,8x,,,,,,,,8b>4[4:1],7,6,5,4x<4b[2:1]/8x,,,,,,,,
4bV68-2-4[2:1],5,6,7,8x,,,,,,,,8b,7,6,5,43,,34,,2,,18,,2b/7b,3,4,5,6x/2x,7,8,1,
2x/6x,5,4,3,2xb/6xb,1,8,7,6x/2x,15,48,7,6qq1[2:1],5,4,3,
2xb/6b,,,,1,,,,2h[8:1],,,,
3b/8bV24[4:1],7,6,5,4x<4b[8:3]/8x,,,,,,,,5b,6,7,8,
1x-6[8:1]/5x-2[8:1],,,,1x/5x,,,,
5b/1bV75[4:1],2,3,4,5x>5b[8:3]/1x,,,,,,,,4b,3,2,1,
8xv3[8:1]/4x-7[8:1],,,,8x/4x,,,,8b/4b,1,2,3,4,5,6,7,2/8x,,1,,2b/8b,3,4,5,
6x/1,,1<6[4:1],,,,1,,4b,3,2,1,8x/5x,4,3,2,1x/5-1[8:1],8,7,6,
5x/2b-7[8:1],,,,2x/6-3[8:1],,,,6x/1,,,,
2b/8bV64[4:1],3,4,5,8xv3b[8:1],,,,8x,,,,7bV13[4:1],6,5,4,7xv4b[8:1],,,,7x,,,,
1bV75[4:1],2,3,4,1xv4b[8:1],,,,1x,,,,8bV24[4:1],7,6,5,8xv5b[8:1],,,,8x,,,,
1b<5[4:1],2,3,4,5x>5b[2:1]/1x,,,,,,,,5b,4,3,2,1,8,7,6,
5>5b[2:1]/1x,4>4[2:1]/8x,3>3b[2:1]/7x,2<2[2:1]/6x,1b<1b[2:1]/5xb,,,,
4x,3x,2x,1x,8x,,,,,48,37,26,15,8,7,6,5,4,3,2,
{4}1b>5[1:2]*<5[1:2]/Cf,,,,,,,,,,,,
{16}6xh[2:1],,,,E8,B8,B1,E2,A2,,,,
3xh[2:1],,,,E4,B4,B5,E6,A6,,,,
7xh[2:1],,,,E8,B8,B1,E2,A2,,,,
2xh[2:1],,,,A3,E4,B4,B5,E6,A6,C,,
E
