&title=LAPSE
&artist=muship
&first=-0.114
&des=少女心事
&wholebpm=135.000
&lv_5=13+
&des_5=少女心事
&inote_5=(135)
{4},{8},
||
4/4
{8}5h[8:3],4>2[16:1],,,5h[8:3],3>1[16:1],,,
5h[8:3],2<8[16:1],,,5h[8:2],A7,A3,,
{8}4h[8:3],5<7[16:1],,,4h[8:3],6<8[16:1],,,
4h[8:3],7>1[16:1],,,4h[4:1],2,6,,
7>1[16:1],3<5[16:1],,C,8<6[16:1],4>2[16:1],,C,
7>1[16:1],3<5[16:1],,C,8-6[8:1],4,2,,
2<8[16:1],6>4[16:1],,C,1>3[16:1],5<7[16:1],,C,
2<8[16:1],6>4[16:1],,C,7,48,15,,
{24}E1,E8/E2,E7/E3,{8},4,{8}5,4b<7b[8:1],,{4}3bh[4:1],
{8}8b,,
5bh[8:1]/7h[8:1],,
{4}3<6[8:1],1,
{16}7<4[16:2],,,4,
,2,,,
8>3[16:2],,,4,
,6,,,
{4}6-3[8:1],4-1[8:1],
{4}8w4[8:1],,
{8}6,4h[8:1],
{16}5,4,,,6/4h[8:1],,,4,
{8}5,4,
{8}6,4h[8:1],
{16}5,3,,,4h[8:1]/6,,,3,
{8}5,4,
{8}7,4h[8:1],
{16}5,2,,,4h[8:1]/7,,,2,
{8}5,4,
{8}8h[4:1]/4h[16:6],,,,
{16}7h[16:2],,3,7,
,6x/2x,,,
{24}6x,7x,8xh[24:7],{16},C,,,4,,3h[16:3],,,5h[16:3],
{8},2,
{24}1x,2x,3hx[24:7],{16},C,{8},5,
{16}4h[16:3],,,6h[16:3],
{8},5,
{8}3h[8:1],4h[8:1],
5h[8:1],6,
{16}7h[16:3],,,5h[16:3],,,3,,
{8}81,2,34,5,65,43,
{4}72,
{16}6b/1b,,7,8,6,5,7,8,6,,{8}16,
,24,
{16},,3qq8[16:5],4,
{4}3,
{8},6,
{4}7,
{16}3b/8b,,2,1,3,4,2,1,3,
{16},5-8[16:2],4,
{4}5,
{4}2>5[8:1],
7>2[8:1],
4<7[8:1],
3>8[8:1],
{32}7,6,5,4h[32:17],,,,,
{8},B6,
{32},,,,7,8,1,2,
{4},
{32}2,3,4,5h[32:9],,,,,
{8},B3,
{32},,,,2,1,8,7,
{8},5>2[8:1]/3,
{8},E2,C,E6,
{16}B1,B3,B5,B7,
{32}E1,E2,E3,E4,E5,E6,E7,E8,
{4}E1,2xh[8:1]/6xh[8:1],
3xh[8:1]/7xh[8:1],
4xh[8:1]/8xh[8:1],
{8}3<5[8:1],4,,6,
3<5[8:1],4,,7,
3<5[8:1],4,,8,
6-3[8:1],7,8,,
{8}6>4[8:1],5,,3,
6>4[8:1],5,,2,
6>4[8:1],5,,1,
3-6[8:1],2,1,,
{8}8x>2[16:1],,
4x<6[16:1],,
8x>2[16:1],B3,
4x<6[16:1],B7,
{8}8x>2[16:1],B3,
4x<6[16:1],B7,
8x-4-2[16:3],7,
{4}5,
{8}1x<7[16:1],,
5x>3[16:1],,
1x<7[16:1],B6,
5x>3[16:1],B2,
{8}1x<7[16:1],B6,
5x>3[16:1],B2,
1xqq5[16:5],2,
{4}4,
{2},
7-4[8:1]/5>2[8:1],
{8}1>4[8:1],4<7[8:1],
1,7,
{8}8pp5[4:1],,6,,
{16}3,,4h[8:1],,2,4,,1,
{16}1,,8h[8:1],,6,8,,5<3[16:5],
{2}7q4[16:4],{4},
{24}35,26,17,,,,
{16}1bxq4[16:3],,,6x,
{8},8x,
{16}1xq4[16:3],,,3x,
{8},2x,
{16}1bxq4[16:3],,,6x,
{8},8x,
{16}1x,3x,5x,4x,
{4}6x,
{16}6bx<1[16:2],,,2,
{8},4,
{16}2x-8-6[16:2],,,5,
{8},3,
{16}4bx<7[16:2],,,1,
{8},3,
{24}8,1,2,3,4,5,
1,2,3,4,5,6,
{16}8bxp5[16:3],,,3x,
{8},1x,
{16}8xp5[16:3],,,6x,
{8},7x,
{16}8bxp5[16:3],,,3x,
{8},1x,
{16}8x,6x,4x,5x,
{4}3x,
{16}3bx>8[16:2],,,7,
{8},5,
{16}7x-1-3[16:2],,,4,
{8},6,
{8}4/7,6,
54,3,
1z5[8:1]/2s6[8:1],83,
{4}12,
{16}6hx[16:3],,,2,{16},2,4,1h[8:2],,,,,{32}3,4,5,6,{8},
{12}2,7,3,5,4,6,3,3,4,1,1,6,
{16}7/2b,,8,1,
,6,5,,2/7b,,8,1,
,4,3,,
{8}6h[8:1],5h[8:1],4h[8:1],3h[8:1],
{24}8,7,6,5,4,3,6,5,4,3,2,1,
{8},B6h[4:1],{32}8x,1x,2x,3x,
{8},,B8h[4:1],{32}5x,4x,3x,2x,
{8},,
{16},3,,,6,,1,7,8,6,5,7,4q8[8:1],6,3h[4:1],,
{8},,{16}1,,{12}3h,4,7h,5,2h,8,
{8}3,1,{16}5,7,5,,3-8[8:1]/8-3[8:1],,3/8,,,,
{8},6/2>5[8:1],8,2/6-3[8:1],8,
{8}6/2-5[8:1],8,2/6,8,2/6q1[4:1],
{16}2,,3,,4,,4h[4:1],,,1h[16:3],
{8},5,4x/7x<4[8:1],1,7/3-6[8:1],1,
{8}3/7-4[8:1],1,7/3,1,3/7p4[16:4],
{16}3,,2,,1,,8h[4:1],,,5h[16:3],
{8},1,5x/2x>5[8:1],8,2/6-3[8:1],8,
{8}6/2-5[8:1],8,2/6,8,6/1-6-3-8[16:5],
{16}6,,5,,5,,4h[4:1],,,1h[16:3],
{8},,
{16}4x/7x>3[8:1],,,6h[16:3],,,,,
{16}4<8[8:1],,,3h[16:3],,,,,
{24}5,6,7,8,1,2,3,4,5pp1[16:4],6,7,8,1bx,,,
{8},,,
{8}8/3<6[8:1],4,7>2[8:1],8,
3<6[8:1],4,7>2[8:1],8,
{16}3qq3b[4:1],,,7,,,6,,4h[4:1],,,,
{32}1x,2x/5x,3x/6x,4x/7x,{8},
{8}7x<4[8:1],6x,3x>8[8:1],2x,
7x<4[8:1],6x,3x>8[8:1],2x,
{16}7xpp7b[4:1],,,3,,,4,,6h[4:1],,,,
{32}1x,8x/5x,7x/4x,6x/3x,{8},
{8}2x>5[8:1],3x,6x<1[8:1],7x,
2x>5[8:1],3x,6x<1[8:1],7x,
{16}2xqq2b[4:1],,,6,,,5,,4,,4x-8-5[4:1],,
{8}2,,3-6-1[4:1],,1V75[4:1],,5-1[16:3],,1,,
{8}3xh[4:1],B2,5xh[4:1],E7,
{8}4xh[4:1],E3,6xh[4:1],E8,
{16}5h[16:3],,,,,5,5,5,5xw1[8:1],,,,
{8},,
{8}7,5h[8:1],
{16}8,6,,,1h[8:1]/7,,,8,
{8}3,7,
{8}3h[8:1],8,
{16}5,1,,,4h[8:1]/3,,,4,
{8}1,6,
{8}8,4h[8:1],
{16}2,5,,,8h[8:1]/6,,,2,
{8}7,3,
{8}4-7[8:1],7-2[8:1],
{4},
{16}5h[16:2],,1,5,
,8x/4x,,,
{24}1xqq2[4:1],2x,3x,{8},,,{16}3h[16:3],,,5h[16:3],,,8,,
{24}2xqq3[4:1],3x,4x,{8},,,
{16}5h[16:3],,,6h[16:3],,,4,,
{8}3h[8:1],4h[8:1],5h[8:1],6,
{16}4h[16:3],,,7h[16:3],,,5,,
{8}34,2,81,7,2bx>4b[16:1]/6bx<8b[16:1],5b/1b,6b/2b,,
{8}1h[8:1],2h[8:1],
{8}8h[8:1],3,7qq6[8:1]/3qq2[8:1],4/8,3/7,,
{8}5xh[8:3],3x>1[16:1],,,5xh[8:3],3x>8[8:1],,,
5xh[8:3],3x>7[16:2],,,5xh[8:2],,{32}6,7,8,1,2,3,4,5,
{8}Cf,,{8}18,,67,,{16}54,,
{16},2h[8:1],,8,4,6,{24}2,3,4,6,7,8,1xb-5[8:1],
