&title=未だ、青い
&artist=湊あくあ
&first=0.71
&des=Project-53
&lv_5=14
&des_5=Project-53
&inote_5=
(185){4}1>4[4:7],,,E6,
{1}E7,
{4}8<5[4:7],,,E4,
{1}E3,
{4}1-4[4:1],6,7-4[4:1],2,
3-8[4:1],7,6-3[4:1],1,
{1}2>1[2:1],
{8}8x/2x,8x/2x,,,7x/1x,7x/1x,,,{4}3>8[8:1],
4,{8}6<1[8:1],6,{4}5,
3>8[8:1],4,{8}6<1[8:1],6,{4}5,
2>5[8:1],1,{8}7<4[8:1],7,{4}8,
2>5[8:1],1,{8}7<4[8:1],7,{4}8,
3>8[8:1],4,{8}5<8[8:1],5,{4}4,
2>5[8:1],1,{8}8<5[8:1],8,{4}1,
{8}2-5[8:1],1,2,7-4[8:1],8,7,1V72-6-3-5[8:7],1,
,,,,,,,,{4}8xqq5[2:7],
1x,1x,1x,
2x,2x,2x,2x,
3x,3x,3x,3x,
4x,4x,4x,4x,
4xqq1[2:7],5x,5x,5x,
6x,6x,6x,6x,
7x,7x,7x,7x,
8x,8x,8x,8x,
8xqq4[1:3],1x,1x,1x,
2x,2x,2x,2x,
3x,3x,3x,3x,
2x,2x,1-5[4:1],{8}6,7,
{4}8-4[4:1],3,1-5[4:1],{8}6,7,
{4}8V64[4:1],4V28[4:1],8V64[4:1],4V28V64>8<5b[4:5],
{8},,,,,,,,,,,,3bx/7bx,
3x/7x,,,{4}8<5[8:1],
2,3>8[8:1],5,
6>3[8:1],8,1<6[8:1],3,
4>1[8:1],6,7<4[8:1],1,
2x<7[4:1],7x<4[4:1],4x>1[4:1],1x<6[4:1],
5x,5x-8[16:1],2,1>4[8:1],
7,6<1[8:1],4,3<6[8:1],
1,8>3[8:1],6,5x<8[4:1],
8xq4[4:1],4xq8[4:1],8x>3[4:1],4x,
4-1[16:1],6,7<4[8:1],1,
2x<7[8:1],{8}5x,6x,{4}6x>3[8:1],{8}1,2,
{4}2<7b[8:1],{8}5x,6x,{4}6x>3b[8:1],{8}1,2,
{2}2-6b[8:1],{4}8p4[4:1],{8}3,2,
{4}1-5[8:1],6,8p4[4:1],{8}3,2,
{4}1>5[4:1],5<1[4:1],1>5[4:1],5<1[4:1],
{1}1>1b[2:1],
{8}6,5,7,3,4,2,6,5,
6<3[4:3],,,4,{4}4,5,
{8}6<3b[4:3],,,5,{4}5,6,
{8}6<3[4:3],,,4,{4}4,5,
{8}6<5b[4:3],,,5,{4}5,6,
{8}8-5[8:5],,,3,{4}3,2,
{8}1-4[8:5],,,6,{4}6,7,
{8}8,7/1,7/1,2,7/3,7/3,{16}3,7,4,5,
{8}1b,1b,,,8x/1x,8x/1x,,,8-4[8:1],
7,8/2-5[8:1],3,{4}2,{8}7<4[8:1],8,
7,2,{4}1w5[8:1],,8/2,
{8}8-4[8:1],7,8/2<7[8:1],3,{4}2,{8}6-4[8:1],8,
6,2-5[8:1],1,2,{4}8V64[4:1],{8}3,2,
{4}1V35[4:1],6,8V64[4:1],{8}3,2,
{4}1V35b[4:1],5V71b[4:1],1-3b[8:1],5,
7x-4[16:1],1x-5[16:1],8x-4[16:1],2x-5[16:1],
7x-3[16:1],2x-6[16:1],8xw4[8:1],Cf,
{8}1-5[8:1],2,1/7-4[8:1],6,{4}7,{8}1>4[8:1],8,
{4}1<6[8:1],1w5[8:1],1,8/2,
{8}8-4[8:1],7,8/2-7[8:1],3,{4}2,{8}6,8>3[8:1],
6,8,,,{4}8-4[8:1],{8}3,2,
{4}1-5[8:1],6,8V64[4:1],{8}3,2,
{4}1-3[8:1],1-7[8:1],1-4[8:1],1-6[8:1],
1-5[8:1],1-7[8:1],1-4[8:1],1-6[8:1],
1-3[8:1],1<5[2:1],{8}4x,3x,2x,1x,
{4}8x,8>4[2:1],{8}5x,6x,7x,8x,
{4}1x,1p8<1[1:3],{2}1bx/Cf,
{4},,,,,,,,,,,,,,,,3xh[1:3],
4,4,4,
5,5,5,5,
6,6,6,6,
{1}7p5[8:3],
{4}3x/5x,2,2,2,
1,1,1,1,
{8}1-3[8:1],,,7x,7x-5[8:1],,,2x,
2x-5[8:1],,,8x,8x-4[8:1],,,3x,
{4}3x>7[2:3],6,6,6,
5,5,5,5,
4/1x,4/1x,4/1x,4/1x,
4-7[8:1],1,2-5[8:1],8,
6xh[8:1]/4xh[8:1],4xh[8:1]/6xh[8:1],4xh[8:1]/6xh[8:1],4xh[8:1]/6xh[8:1],
5xh[8:1]/2xh[8:1],5xh[8:1]/2xh[8:1],5xh[8:1]/2xh[8:1],5xh[8:1]/2xh[8:1],
3xh[8:1]/7xh[8:1],3xh[8:1]/7xh[8:1],3xh[8:1]/7xh[8:1],3xh[8:1]/7xh[8:1],
2xh[8:1]/6xh[8:1],2xh[8:1]/6xh[8:1],1xh[8:1]/7xh[8:1],1xh[8:1]/7xh[8:1],
{2}7x/1x>3-7[2:1],7<5-1[2:1],
8<6-2[2:1],2>4-8[2:1],
1>5[2:1],{4}5<1[2:1],C,
1>5[2:1],C,{2}5-1[4:1],
{8}8xh[1:1],,,,,1,{4}1,
{8}2h[1:1],,,,,3,{4}3,
{8}4h[1:1],,,,,5,{4}5qq8[4:3],
{8},,,,,,,,1>4[2:1],
,,7,7,,,8,
8<5[2:1],,,2,2,,,1,
1,8/2,8/2,7,2/6,2/6,{16}2,6,4,5,
{8}8b,8b,,,2x/7x,2x/7x,,,8-4[8:1],
7,8/2-5[8:1],3,{4}2,{8}7<4[8:1],8,
7,2,{4}1w5[8:1],,8/2,
{8}8-4[8:1],7,8/2<7[8:1],3,{4}2,{8}6-4[8:1],8,
6,2-5[8:1],1,2,{4}8V64[4:1],3,
1V35[4:1],6,{8}8V64[4:1],8,3,2,
{4}1V35b[4:1],5V71b[4:1],1-3b[8:1],5,
7x-4[16:1],1x-5[16:1],8x-4[16:1],2x-5[16:1],
7x-3[16:1],2x-6[16:1],8xw4[8:1],Cf,
{8}1-5[8:1],2,1/7-4[8:1],6,{4}7,{8}1>4[8:1],8,
{4}1<6[8:1],1w5[8:1],1,8/2,
{8}8-4[8:1],7,8/2-7[8:1],3,{4}2,{8}6,8>3[8:1],
6,8,,,8-4[8:1],8,3,2,
{4}1-5[8:1],6,{8}8V64[4:1],8,3,2,
1V35[4:1],,,6x,7x,8x,{4}8x-5<6-2>3-8[4:5],
,,,,,,{2}2xqq4[1:1],
,,{1}8xp1[2:1],
1x-4>3-7<6-1[4:5],
{2},5xpp5qq5b[4:5],
{8},,,,,,,,1x,
1x,,,2x,2x,,,2>5[4:1],
,,7,{2}6<1[4:1],
{8}3,3<6[4:1],,,{2}7>2[4:1],
{8}4<7[4:1],,,8,8>3[4:1],,,5,
{2}5<8[4:1],1>4[4:1],
{8}6<1b[4:1],,,3,{2}2>5b[4:1],
{8}7,7>2b[4:1],,,{2}3<6b[4:1],
{8}8>3b[4:1],,,5,{2}5pp5qq5b[1:1],
{1},,{4},,{8},{16}1,
8,{4}2b/7b,
{8}8-4[8:1],7,8/2-5[8:1],3,{4}2,{8}7<4[8:1],8,
7,2,{4}1b-5b[8:1],{2}1bw5b[8:1],
{8}1x-5[8:1],2x,1/7-4[8:1],6,{4}7,{8}2-6[8:1],2,
1-5[8:1],1,8-4[8:1],8,{4}7x,{16}1-6[8:1],2,3,4,
{4}1-5[8:1],1-7[8:1],1,{16}1-6[8:1],2,3,4,
{4}1-5[8:1],1-7[8:1],1-3[8:1],1x,
{16}7x/3x,6,5,4,3/8x,2,1,8,7/2,3,4,5,6/1x,7,8,1,
2x/6x,7x/3x,8x/4x,1x/5x,2x/6x,7x,8x,1x,{2}2bx-7[8:1]/6bx-3[8:1],
{8}1x-5[8:1],2x,1/7-4[8:1],6,{4}7,{8}2>5[8:1],1,
2,7,{4}8b-4b[8:1],{2}8bw4b[8:1],
{8}2-4[8:1],2,1-5[8:1],1,8-4[8:1],8,7-2[8:1],7,
,,,,3>7[4:1],7,6,5,
{2}4-1[8:1]*-8[8:1],{8}3>7b[4:1],7,6,5,
{4}4x-7[8:1],2x-5[8:1],8x-3[8:1],6x-1[8:1],
4x>8[4:1],8x<4[4:1],4xp8[4:1],8xp4[4:1],
4xV28[4:1],8x>4b[2:1],{8}5,6,7,8,
{4}1,1<5b[2:1],{8}4,3,2,1,
{4}8,8-4b[8:1],{2}Cf/8b-4>5[8:43],
{1},,,{4},{8},4>5b[8:27],
{1},,,{4},,{1}1xs5[8:19],
E
