&title=熱異常
&artist=いよわ / 鏡音リン / ワンダーランズ×ショウタイム 「プロジェクトセカイ カラフルステージ! feat. 初音ミク」
&first=-0.2
&des=!!-Temperature: 9940 K-!!
&lv_5=14
&inote_5=(183)
{4},,,,
{4},,,,
{16}5/3V17[8:8],,,,5,,,,5,,,,5,,,,
{16}5,,,,5,,,,5,,,,5,,1,,
{16}5/1v3[8:8],,,,5,,,,5,,,,5,,,,
{16}5,,,,5,,,,5,,,,5,,3,,
{16}3/5V71[8:8],,,,3,,,,3,,,,3,,,,
{16}3,,,,3,,,,3,,,,3,,7,,
{16}3/7v5[8:8],,,,3,,,,3,,,,3,,,,
{16}3,,,,3,,,,3,,,,3,,5,,
{16}5/3-7[8:8],,,,5,,,,5,,,,5,,,,
{16}5,,,,5,,,,5,,,,5,,1,,
{16}1v3[8:8]/5,,,,5,,,,5,,,,5,,,,
{16}5,,,,5,,,,5,,,,5,,3,,
{16}3/5v7[8:8],,,,3,,,,3,,,,3,,,,
{16}3,,,,3,,,,3,,,,3,,1,,
{16}1-5[8:8]/3,,,,3,,,,3,,,,3,,,,
{16}3,,,,3,,,,3,,,,3-5[8:1],,5-1[8:1],,
{16},,,,,,,,7,,,,3,,3,5,
{16}3,,3,,3,5,3,,3,5,3,,3,,3,,
{16}3,,3,5,3,,3h[8:1],,1h[8:1],,5h[8:1],,7,,7,5,
{16}7,,7,,7,5,7,5,7,,7,5,7,,7,,
{16}7,,7,5,7,,7h[8:1],,5h[8:1],,3h[8:1],,1-5[8:1],,5h[8:1],,
{16}1,,7-3[8:1],,3h[8:1],,7,,1-5[8:1],,5h[8:1],,1,,7-3[8:1],,
{16}3h[8:1],,7,,1-5[8:1],,5h[8:1],,1,,7-3[8:1],,3h[8:1],,7,,
{16}1-5[8:1],,5h[8:1],,1,,7-3[8:1],,3h[8:1],,7,,1V73[8:3],,5h[8:1],,
{16}1,,,,,,,,7,,,,3,,3,1,
{16}3,,3,,3,1,3,,3,1,3,,3,,3,1,
{16}3,1,3,,3h[8:1],,1h[8:1],,5h[8:1],,7,,7,,7,1,
{16}7,1,7,,7,1,7,,7,,7,,7,1,7,1,
{16}7,,7,,7,,5,,3,,1,,1,7,1,7,
{16}1,7,3,5,3,5,3,5,1,7,1,7,1,7,3,5,
{16}3,5,3,5,1,5,1,5,1,5,3,7,3,7,3,7,
{16}1,5,1,5,1,5,3,7,3,7,3,7,3,,5,,
{16}7V51[4:1],,,,,,,,3h[4:4],,,,,,,,
{16},,,,,,,,7,,,,1,,1,7,
{16}1,,1,,1,7,1,,1,,1,7,1,,1,,
{16}1,7,1,7,1h[8:1],,7h[8:1],,3h[8:1],,5,,5,3,5,,
{16}5,,5,,5,3,5,,5,,5,3,5,,5,,
{16}5,3,5,3,5,,5h[8:1],,7h[8:1],,1h[8:1],,3-1[8:1],,5h[8:1],,
{16}3,,7-1[8:1],,5h[8:1],,7,,3-1[8:1],,5h[8:1],,3,,7-1[8:1],,
{16}5h[8:1],,7,,3-1[8:1],,5h[8:1],,3,,7-1[8:1],,5h[8:1],,7,,
{16}3-1[8:1],,5h[8:1],,
{16}3,,7-1[8:1],,5h[8:1],,7,,3h[4:2],,5,,
{16}7h[4:1],,,,,,,,1,,,,1,,1,,
{16}1,3,1,,1,3,1,3,1,,1,,1,3,1,,
{16}1,,1,,1h[8:1],,7h[8:1],,3h[8:1],,5,,5,,5,7,
{16}5,,5,7,5,,5,,5,7,5,,5,,5,,
{16}5,7,5,7,5,,5h[8:1],,1,,,,1,7,1,7,
{16}1,7,3,7,3,7,3,7,3,1,3,1,3,1,5,1,
{16}5,1,5,1,5,3,5,3,5,3,1,3,1,3,1,3,
{16}1,5,1,5,1,5,7,5,7,5,7,5,7,,1,,
{16}3V15[4:1],,,,,,,,7h[4:4],,,,,,,,
{16},,,,,,,,1b-5[8:1],,,,1/7-1[8:1],,,,
{16}3-7[8:1]/7,,,,5-3[8:1]/3,,,,1-5[8:1]/5,,,,1/7V51[4:1],,,,
{16}3,,3,,3h[4:1],,,,7,,,,5-7[8:1],,,,
{16}1-5[8:1]/5,,,,1/3-1[8:1],,,,7-3[8:1]/3,,,,5-7[8:1]/7,,,,
{16}5/1V73[4:1],,,,5,,5,,5,,,,7-1[8:1]*-5[8:1],,,,
{16}7,,,,3V17[4:1],,,,7V53[4:1],,,,3V15[4:1],,,,
{16}1,,,,7h[4:1],,,,1,,,,1-3[8:1],,1,,
{16}7-5[8:1],,7,,1-5[8:1],,1,,7-3[8:1],,7,,1-7[8:1]*-3[8:1],,1,,
{16}1-5[8:1],,,,1/5,,,,3/7,,,,1-3[8:1],,,,
{16}1-7[8:1]/5,,,,1-3[8:1]/5,,,,1-5[8:1]/5,,,,1/5V31[4:1],,,,
{16}7,,7,,7,,,,3h[4:1],,,,5,,5,,
{16}5-7[8:1],,,,5-3[8:1]/1,,,,5-7[8:1]/1,,,,5-1[8:1]/1,,,,
{16}5/1V75[4:1],,,,3,,3,,3,,,,1-3[8:1]*-7[8:1],,,,
{16}1,,,,5-1[8:1]/1-5[8:1],,,,1/5,,,,7V15[4:1],,,,
{16}3,,3,,3,,,,7-5[8:1],,,,3-5[8:1]/7,,1,,
{16}3/7-5[8:1],,1,,3-5[8:1]/7,,1,,3/7-5[8:1],,1,,3-5[8:1]/7,,1,,
{16}3/7-5[8:1],,1,,3-5[8:1]/7,,1,,3/7,,,,3,,3,1,
{16}3,,3,,3,1,3,1,3,,3,,3,1,3,,
{16}3h[8:1],,5h[8:1],,7h[8:1],,1h[8:1],,3,,3,,7,,7,5,
{16}7,,7,,7,5,7,5,7,,7,,7,5,7,,
{16}7,,7,,7h[8:1],,5h[8:1],,3h[8:1],,1,,1,,1-5[8:1],7,
{16}1,,1/7,,7,,7,,7,,7-3[8:1],1,7,,7/1,,
{16}1,,1,,1,,1-5[8:1],7,1,,1/7,,7,,7,,
{16}7,,7-3[8:1],1,7,,1/7,,1,,1,5,1,,7h[8:3],,
{16}3h[4:1],,,,,,,,1,,,,5,,5,3,
{16}5,,1/5,,5,3,5,3,5,,1/5,,5,3,5,,
{16}5/1,,5/1,,3,,3,,7,,7,,1,,1,7,
{16}1,,1/5,,1,7,1,7,1,,1/5,,1,7,1,,
{16}1/5,,1/5,,1,,1,,7,,7,,1b,3,5,7,
{16}1,3,5b,7,1,3,5,7,1b,3,5,7,1,3,5b,7,
{16}1,3,5,7,1b,3,5,7,1,3,5b,7,1,3,5,7,
{16}1b,3,5,7,1,3,5b,7,1,3,5,7,1bV35[8:1],,,,
{16},,,,1-5[8:1]*V75[4:32],,,,,,,,,,,,
{16},,,,,,,,,,,,,,,,
{16},,,,,,,,,,,,,,,,
{16},,,,,,,,,,,,,,,,
{16},,,,,,,,,,,,,,,,
{16},,,,,,,,,,,,,,,,
{16},,,,,,,,,,,,,,,,
{16},,,,,,,,,,,,,,,,
{16}7-3[8:1],,,,,,,,,,,,,,,,
