&title=é–ƒå…‰å¤Ščˆž
&artist=Juggernaut.
&first=-0.05
&des=Yaegaki
&des_5=
&lv_5=14+
&inote_5=(198){4},,,,,8z4[4:5],
,,,,,1>8[4:3],
{8},,,,B7,B6,,B5,
{4}B4,1h[4:1],6,{8}5,4,
{4}6/3h[4:1],4-8[8:1],7,5-1[8:1],
2,3-8[8:1],4,6-1[8:1],
5,{8}2-5[8:1],2,{4}1,{8}7-4[8:1],7,
1,1,{4}2s6[4:1],6,7,
{16}3,4,3,4,{4}2h[4:3],E6,E7,
E8,E1/B8/B1,{8}4,5,{4}3h[4:1],
B5/E5/B4,6h[4:3],E4,E3,
E2,{8}1,1,7,7,6/1,1/6,
{4}2-5[8:1],2/5,6-2[8:1],{8}6/2,3,
{4}4-8[8:1],{8}4/8,7,6,6,2,2,
{4}3/5,{8}6/2,{16}7,8,{8}7,6/2,{16}3,4,3,5,
4,6,{8}5,{4}7-3[8:1],{8}3,2,{4}1w5[8:1],
{1}1b>8[1:1],
{4},1bxh[4:1],2bxh[4:1],{8}3bx,3bx,
{4}4bx/6bx,{8}7h[8:1],5,7h[8:1],5,7h[8:1],5,
7h[8:1],5,6,6,3,3,4,3,
{4}2/5,{8}3h[8:1],5,3h[8:1],5,4h[8:1],6,
4h[8:1],6,5/7,{16}8,1,{8}8,2,4/3,5,
{4}6/2>5[8:1],2b/1b,{8}7h[8:1],5,7h[8:1],5,
7h[8:1],5,7h[8:1],5,6,6,3,4,
{4}5/2,{8}2/6,{16}1,8,{8}1,7,6/2,3,
4/7,6,{4}5w1[8:1],5b,3-6[8:1]/7-4[8:1],
7b/3b,{8}2,2,8,8,3/7,{16}6,5,
{8}6,3,2/4,{16}1,8,{8}1,6/2,5,2,
{4}3h[8:1]/4h[8:1],{8}5,5,1,1,2/5,{16}3,4,
{8}3,5,6/4,{16}7,8,{8}7,1,{4}2-5[8:1]/5-1[8:1],
5/2,{8}8,8,2,2,7/3,{16}6,4,
{8}5,2,3/1,{16}8,4,{8}8,3,7/2,6,
{4}5h[8:1]/1h[8:1],{8}2/4,2,5,5,4/6,{16}7,8,
{8}7,1,{32}2,3,4,5,,,,,8,7,6,5,,,,,1,2,3,4,5,6,7,8,
{4}1b/5b,{32}7bx-5v6b[16:3]/2bx-4-8[16:3],3x/6x,{16}4x/5x,,,,,,,1,2,3,4,
6,7,8,1,5,4,3,2,1s5[4:1],8,7,6,{4}5/1,
{32},,,,,,,,7bx-5-1[16:3]/2bxv3-5b[16:3],6x/3x,{16}5x/4x,,,,,,,8,7,6,5,
1,2,3,4,6,5,6,5,{8}6-1[8:1],3-6[8:1],6,3,
{4}E8f/B7/B8,{32}2bx-4v3b[16:3]/7bx-5-1[16:3],6x/3x,{16}5x/4x,,,,,,,8,7,6,5,
3,2,1,8,4,5,6,7,8z4[4:1],1,2,3,{4}4/8,
{32},,,,,,,,2bx/7bx-3-5-8b[2:1],6x/3x,{16}4x/5x,,,{8}1h[16:1],1h[16:1],1h[16:1],2h[16:1],
2h[16:1],2h[16:1],3h[16:1],3h[16:1],{16}6,4,6,4,7,5,7,5,
{4}8h[4:1],{32}1bv8-6[16:3],2x,{16}3x,,,{4}1,{16}3,4,{8}2,
{16}3,4,{8}2,{16}3,4,{8}1,{16}3>6[16:3],4,{8}1,{4}3,
{32}D6,A5,D5,A4,{8}D4,{32}8bv1-3[8:1],7x,{16}6x,,,{4}8,{16}7,5,{8}6,
{16}7,5,{8}6,{16}4,8,4,8,3,7,3,7,2,6,2,6,
{32}A1,B1,C,B5,{8}A5,{32}8bv2-4[16:3],7x,{16}6x,,,{4}8,{16}6,5,{8}6,
{4}4/7-4[8:1],7/3-8[8:1],3/5,{16}1,2,3,5,
6,7,{8}8,{32}2bv1-6[16:3],3x,4x,5x,,,,,{4}2,{16}4,5,{8}3,
{16}4>7[16:3],5,{8}3,{4}4,{16}A6,A5,A4,A3,1x,8x,7x,6x,
{4}5bxh[4:1]/E1f/B8/B1,{12}3x,4,3,5,4,5,2x,4,3,
6,4,5,1x,4,3,7,4,5,2x,6,2,
6,1,7,1x,,6,{6}4,{12}4,2x,1,8,
7,6,5,3x,4,3,6,5,6,8x,7,8,
{4}7h[6:1],{12}1x,5,1,6,2,6,3x,5,4,
7,5,6,2x,4,3,5,4,6,3x,7,2,
8,1,8,2xh[6:1],,4,{6}3,{12}6,5x,7,4,
8,8,1,7x,2,6,2,6,3,{24}8x,7x,6x,5x,2x,1x,
8x-4b[8:1],7x,6x,5x,4x,3x,{4}2bx/8bx-6-1-3s7[1:3],,,,,,,{1}4xv5-7[4:5],
{8},,,,,,8,8,
{4}7/1,2>5[8:1],1,7<4[8:1],
8,3>8[8:1],4,6<1[8:1],
5,{8}4,4,1,1,3,3,
8V63[4:1],8,{4}3V51[4:1],,B3/B4/E4f,
{16}7,8,7,8,{4}6V48b[8:3],2,3,
4,5V38[4:1],{8}8,7,{4}6-3[8:1],
{8}8,1,{4}2V48b[8:3],8,7,
{8}6,5,4/8,1,{24}2,3,4,5,{48},,,,{16}7,8,7,8,
{4}7-3[8:1],7/3,4-8[8:1]/2-5[8:1],2/4,
7-4[8:1]/4-8[8:1],4/7,{8}1/5,5/1,6/2,6/2,
3/7,8,{16}2,1,3,8,4,7,5,6,3,4,2,5,
1,6,8,7,{4}1>5[16:3],{8}7,8,{4}1w5[8:1],
{1}1b>8[4:3],
{16},,,,4/B7/E8/B8,,,3/E6/B6/B5,,,{8}2,{4}1w5[8:1],
1b,7-4[8:1]/3-8[8:1],3b/7b,{8}1/5,{16}2-5[8:1],4,
{8}3,2,{24}6,7,8,1<6[8:1],,,{8}5,3,{4}1xs5[8:1]*v4[8:1],
1,6v1[8:1]/2v5[8:1],6b/2b,{8}8/4,{16}7-4[8:1],5,
{8}6,7,{24}3,2,1,8,,,4,3,2,1,,,{8}4x/8x,{16}7,5,
{8}6,{16}3,4,{4}1w5[8:1],1b,{8}3/7,{16}2,1,
{8}2-5[8:1],3,4/2,6,{16}8x/4x,3/7,2x/6x,1/5,{4}8bx/4bx-6-1[4:1],
{8}1,3,{4}5xV31[4:1],{8}8,6,{4}4xV68[8:1],
{8}2,2,3/1,{16}8,5,{8}6,3,{4}1>4[8:1]/5<8[8:1],
1/5,5-2[8:1]/1-6[8:1],5b/1b,{8}3/7,{16}6-1[8:1],5,
{8}7,6,{24}2,3,4,5,,,2-6[8:1],1,8,7,,,{4}2b/4bh[4:1],
{8}7,8,{4}1V35[8:1]/5V71[8:1],5/1,{8}4/8,{24}7,6,5,
{8}4/2,1,7-5[8:1],8-4[8:1],7>5[16:3],8,{4}7b,
{32}1,2,3,4,5,6,7,8,{4}1bw5[8:1],1b/B1/C/B5,{8}7/3,{16}2,1,
{8}2-5[8:1],3,4/2,6,{16}8x/4x,7/3,6x/2x,5/1,{4}4x-7[8:1]/8x-3[8:1],
8/4,{16}2,6,2,6,3,7,3,7,4,8,4,8,
{32}5,6,7,8,1,2,3,4,{4}5w1[8:1],5b,7-4[8:1]/3-8[8:1],
7b/3b,{32}1b/5b,2b/6b,3b/7b,4b/8b,
E
