&title=100てん☆ナンバーワン!
&artist=周防 桃子(CV:渡部恵子)
&first=-0.28
&des=bbben
&lv_4=12
&inote_1=
&inote_4=(160)
{1},,
{4},,,,
B1/B5/B7/Cf/B3,
{8},3h[8:11]/7h[8:11],,,,,,,,,,,,
2/6h[8:15],,,7h[4:5],,,,,,,,,,,,8^5[4:2],,,,,,,,
8-5[8:1]/3-6[8:1],,38,,,,8/6h[4:4],,,,8,,,,8,,
{16}4h[4:1]/6,,,,2x,3x,4x,5x,6x,7x,8x,1x,{32}2x-7[16:1],3x,4x,5x,6x,7x,8x,1x,2x
{8},,,,,,
E8/3,,B8/4,,
3>6[4:2]/5h[4:3],,,,,,,,
6<3[4:2]/4h[4:3],,,,,,,,
2h[4:3]/7h[4:3],,,,,,,,
86,,13,,8h[4:1]/6h[4:1],,,,
6/8-5[8:3],,,,,,,,3/1-4[8:3],,,,,,,
,36,,1pp4[8:2]/8qq5[8:2],,,,,1x^4[16:1]/7x^4[16:1],,,,16,,,,,
3-7[8:1],,,,E8/B7/B8,,,,
6-2[8:1],,,,E2/B2/B1,,,,
8^3[8:1],,,,1^6[8:1],,,
8^3[8:1],,
,7x,E8/B7,,,,
4,3h[4:1],,5h[4:1],,8,1,2,
5,6h[4:1],,4h[4:1],,1,8,7,,
3/4h[4:1],,5,,6/5h[4:1],,4,
8^3[8:1],4^7[8:1],8-4[8:1],
,,,,,,
3-7[8:1],,,,E8/B7/B8,,,,
6-2[8:1],,,,E2/B2/B1,,,,
8^3[8:1],,,,1^6[8:1],,,
8^3[8:1],,,,15,,,,
8-2[8:1]/7-3[8:1],,,,,56,,,,
1-7[8:1]/2-6[8:1],,,,43,,,
,
{16}56,,,65,,,,,43,,,34,,,,,
{8}
2pp3[4:1]/7qq6[4:1],,,,,,,,
8,,7,,8,,7,,8,,,,7,,,,
6^1[8:1],,,,5-1[8:1],,,,
2^5[8:1],,1^6[8:1],,,,,
5p6[4:2],,,,,,,,
4q3[4:2],,,,,,,
5-8[8:1],,,,4-1[8:1],,,,
5-8[8:1],,,,4-1[16:1],,,,,
83,C,16,C,,{16}7x,6x,5x,4x,3x,2x,1x,8x,
{8}7x/3x,,,,1-4[8:1]/8-5[8:1],,1b/8b,,
12,,87,,12,,8-2[8:1]/7-1[8:1],,,,8-2[8:1]/7-1[8:1],,,,,,
8/3h[8:2],,8,,1/6h[8:2],,1,,
8/3h[8:2],,8,,1/6h[8:2],,1,,
8/3h[8:2],,4-8[8:1],,,,,,
1/6h[8:2],,5-1[8:1],,,,,,
7qq6[8:2],,7-3[8:1],,,,,,8b,,1b,,2b,,
3b-6[8:1],,3,,1-4[8:1],,,,
2-7[8:1],,2,,1-4[8:1],,,,
2-7[8:1],,2,,1-4[8:1],,,,
2-7[8:1],,2,,1-4[8:1],,,,,,
{8}68,,,31,,,86,,,,13,,,,,,
6h[4:3]/8,,,,8,,,,
8/3h[4:7],,8>8>2[4:3],,8,,,,,,,,,,7,,,,,,,,,,
1^6[4:3],,,,,,,,,,,,,,,,
C/B3h[4:7]/E3/A2,,,,,,,,,,,,,,,,
18,,56,,B8/B1,,56,,
81,,43,,B1/B8,,43,,
1pp2[4:1]*qq8[4:1],,,,,,,,8,,7,,Chf[8:2],,
2-7[8:1],,2,,1-4[8:1],,,,
2-7[8:1],,2,,1-4[8:1],,,,
2-7[8:1],,2,,1-4[8:1],,,,
2-7[8:1],,2,,1-4[8:1],,,,,,
{8}68,,,31,,,86,,,,13,,,,,,
6h[4:3]/8,,,,8,,,,
8/3h[4:7],,8>8>2[4:4],,8,,,,,,,,,,7b,,,,,,,,
1^6[4:2],,,,,,,,,,
3h[4:3]/6h[4:3],,,,,,,,
86,,13,,8h[4:1]/6h[4:1],,,,
6/8-5[8:3],,,,,,,,3/1-4[8:3],,,,,,,
,36,,1pp4[8:2]/8qq5[8:2],,,,,1bx^4[16:1]/7bx^4[16:1],,,,1b/6b,,
2-7[8:1],,2b,
