&title=ギフト
&artist=DECO*27
&first=-0.125
&des=aycp
&lv_5=12+
&des_5=aycp
&inote_5=
(122){4},{8},,,,,,,,,,,,,,4-2[8:1],
4,5-7[8:1],5,{16},,2,1,{8}1/8,{16}7,6,
3/6,,,4/2,{8}3,{16}5/7,6,,5/4,3,2,6,7,{8}1h[16:1]/8h[16:1],
2x,7x,{16}3,3v6[8:1],,4,4,5,,,7,7v2[8:1],,8,
8,1,,,1h[8:1],,,8,8,,,2/7,,2>7[8:1],1,8,
{4}7,1-5[8:1],{16}1,,,6,{8}4h[8:1],{16}5,6/3,
{8}2b,7b,{4}1>4[8:1]/8<5[8:1],{16}1/8,,,6,5,7,3,4,
{8}2,{16}2/7,6/3,4,5,3,6,2,7,1/8,2,7,3,6,4,
5b,5,{8}2>4[8:1],{16}2,8,{8}8,7<5[8:1],{16}7,1,{4}1,
{8}8/1-4[8:1],1,8-5[8:1],8,1>4[8:1],1,8<5[8:1],8,
1,4,4>1[8:1],{16}5,5,,6,{8}6b,{16},,,3/6,
{8}5/4,5/4,1/8-5[8:1],8,1-4[8:1],1,8<5[8:1],8,
1>4[8:1],1,8,5,{16}5<8[8:1],4,{8}4,{16},,,,1,
8,{8}1,1/8-4[8:1],{16}8,1-5[8:1],,1,,,,,,,{8}6/3,
{16}4/5,5,{8}2-5[8:1],2,7-4[8:1],7,{16}1,2,{8}3,
{16}8,7,{8}6b,{16},3>6[16:19],,,{8}5,5,4,4,
3,3,4,4,5,5,,4/5,
{16}3/6,6/3,,8,1,7,1,7,8,8,,2,8,2,8,2,
1,1,,5,4,6,,,{4}2<7[4:1],7>2[4:1],
{8},,5pp5[8:1]*qq5[8:1],3/7,{4}5x,{8}4qq4[8:1]*pp4[8:1],6/2,
{4}4x,{8}6pp4[4:1],6,3qq5[4:1],3,{16},,,,7,
7,,5,4,6,4,5,{8}3,{16}2,2,4,5,3,5,
4,6,,1/8,3,3,6,6,,2b,{8}7b,{16}1,1,8,8,
3,6,{8}5/4,1pp1[8:1]*qq1[8:1],7/3,{4}1x,{8}8qq8[8:1]*pp8[8:1],2/6,
{4}8x,{8}1>4[8:1],8<5[8:1],1-4[8:1],8-5[8:1],1-5[8:1],8-4[8:1],
,,{4}3,6,5/4,
3/6,7/2,1/8,{8}4qq5[8:1],6pp5[8:1],
,,,5pp4[8:1],{2}3qq4[8:1],
{8}2pp8[4:1]/7qq1[4:1],2/7,{16},,,,,,6/3,6/3,,,,,{4}4h[8:1]/5h[8:1],
{8}4,6<8[8:1],4,6-1[8:1],4,3,
2,1/8,7<3[8:1],3V57[8:1],,,,2b/8b,
,1,2,3,4,5,6,7,
8,8,7,6,5,4,3,2,
1/8,2/7,6<8[4:1]/3>1[4:1],3/6,,,,1/8,
7/2,3/6,{16}4,5,4,5h[16:3],{8}4,3,{16}2/6,,,8,
{8}8,7/1,7>2[4:1],6,5,4h[8:1],{16},,4/7,4/7,
{4}6h[8:1]/5h[8:1],{8}3<6[4:1],2,1,8h[8:1],,,4/5,
3/6,1>5[4:1],1,{16}8,8,7,7,{4}6b,
{8}5/4,6/3,8<4[4:1],8,{16}1,1,2,2,{4}3b,
{8}3<6[8:1],6>3[8:1],,7,8,2,1/8v5[8:1],8,
1v4[8:1],1,5,5pp5qq5[2:1],3/7,5x,,,,1,
1w5[8:1],8/2,{4}1b,{16}5,6,{8}4,
5/3,2/6,8w4[8:1],1/7,{4}8b,{16}4,5,{8}3,
{16}6/2,,,1/7,{4}1h[8:1]/7h[8:1],{8}8-4[8:1],8,1-5[8:1],1,
8<4[8:1],8,,3,2/4,5h[8:1]/1h[8:1],,6/8,
7,{16}6/5,5/6,{8}4,7,2/8,1,{16},,3,4,
3,6,5,6,{8}4>8[4:1],4,{16}4/8,7,{8}7,,,2/4,
3,5/7,6,7/2,1/8,2/3,7/6,
4/5<7[8:1],5,4>2[8:1],4,5,6,3,5,
4,1,{4}8h[4:1],2h[4:1],{8}7h[4:1],1,
{16},3,5,4,{4}6h[2:1],,,5h[4:1],
{8}6,4/5,{4}4h[4:1],{8}3,2,
{4}7h[4:1],{8}3,7,{4}2h[4:1],6,
{8}1q4[4:1],7,,,8p5[4:1],2,,,,,{4}3v2[4:1]/6v7[4:1],
,,,5h[2:1]/1-4[4:1],
{2}1,
{4}4h[2:1]/8-5[4:1],8,,2h[2:1]/7<3[4:1],
{2}7,{4}7h[2:1]/2>6[4:1],2,
{8},3qq5[2:1]/6pp4[2:1],,,,,,,2/7,
3/6,1/8-5[8:1],8,1-4[8:1],1,8<5[8:1],8,
1>4[8:1],1,8,5,{16}5<8[8:1],4,{8}4b,{16},,,6/3,
{8}4/5,4/5,8/1-4[8:1],1,8-5[8:1],8,1>4[8:1],1,
8<5[8:1],8,1,4,{16}4>1[8:1],5,{8}5,{16},,,,5,
4,{8}5,8/1-5[8:1],{16}1,8-4[8:1],,8,,,,,,,{8}2/7,
{16}8/1,1,{8}6-1[8:1],6,3-8[8:1],3,{16}8,7,{8}6,
{16}1,2,{8}3b,{16},7<2[16:19],,,{8}1,1,8,8,
7,7,8,8,1,1,,5/4,
{16}3/6,6/3,,8b,1,7,1,7,8,8,,2,8,2,8,2,
1,1,,5,4,6,,,{8}2<7[4:1],2,7>2[4:1],6,
4,4,5bpp5[8:1]*qq5[8:1],3b/7b,{4}5x,{8}4bqq4[8:1]*pp4[8:1],6b/2b,
{4}4x,{8}6pp4[4:1],6,3qq5[4:1],3,{16},,,,7,
7,,5,4,6,4,5,{8}3,{16}2,2,4,5,3,5,
4,6,,1/8,3,3,6,6,,2b,{8}7b,{16}1,1,8,8,
3,6,{8}5/4,1bpp1[8:1]*qq1[8:1],7b/3b,{4}1x,{8}8bqq8[8:1]*pp8[8:1],2b/6b,
{4}8x,{8}1>4[8:1],8<5[8:1],1-4[8:1],8-5[8:1],1-5[8:1],8-4[8:1],
1x,8x,{16}3,3,6,4,5,4b,,,6,6,3,5,
4,5b,,,{8}2/6,{16}3,3,5,5,4,4,7/3,6,6,4,
4,5,{8}5,4bxqq4[8:1]*pp4[8:1],6bx/2bx,{4}4bx,{8}5bxpp5[8:1]*qq5[8:1],3bx/7bx,
{4}5bx,{8}8<5[8:1],1>4[8:1],8-5[8:1],1-4[8:1],8-4[8:1],1-5[8:1],
8x,1x,{16}6,6,4,5,3,5b,,,3,3,5,4,
6,4b,,,7/3,3,6,6,4,4,5,5,2/6,3,3,5,
5,4,{8}4,4bxqq4[8:1]*pp4[8:1],6bx/2bx,{4}4bx,{8}5bxpp5[8:1]*qq5[8:1],3bx/7bx,
{4}5bx,{8}8-4[8:1],1-5[8:1],8-6[8:1],1-3[8:1],8q5[8:1],1p4[8:1],
E
