&title=init()
&artist=kamome sano
&first=-0.28
&lv_1=没写呢
&des_1=
&inote_1=
(180){4},{1},{16},,
{1},,,,,{4},,,{16},,
{1},,,,,,,,,{4},
{1},{4},,
{1},,,,,{16},,,,
{1},,,,{8},,
{1},,,,{4},,,,
,,,,
{1},{4},{16},,,{32},,
{1},,,,{16},,,,
{1},,,,,,,,,{4},
,,,{8}8,
8,{16}8,{8},{16}8,,8,{8}8,
8,8,{1},,,,{4},,,{16},,,,
{1},,,,{16},,,,
{4},,{16},,,,
,,,,{2},
{1},
,{4},,,{16},,,,
{8},{16}4,4,{8}4,{16}4,4,,4,{8}4,{16},4,{8}4,
{32}4,,{16},{32},{16},{32},{4}4,{2},{4}6x,
{2},{4}6x,
{1},,,,{16},,,,
{1},{4},{2},
{1},,,,,,,{4},,
{1},,{2},{1},
{2},,
{1},,{16},,,,
{1},,,,,,,,,{4},
{1},,,,,,{4},,{16},,,,
{1},,,,,,,,,{4},
&lv_4=13
&des_4=
&inote_4=
(180){4},{1},{16}1b,
,{8}1b,1b,1b,{16}1b,1b,1b,1b,
1b,1b,1b,1b,{32}1b,1b,1b,1b,1b,1b,1b,1b,1b,1b,1b,1b,1b,1b,1b,1b,{64}1b,1b,1b,1b,1b,1b,1b,1b,1b,1b,1b,1b,1b,1b,1b,1b,
1b,1b,1b,1b,1b,1b,1b,1b,1b,1b,1b,1b,1b,1b,1b,1b,{8}2b,2b,2b,2b,{16}2b,2b,2b,2b,
2b,2b,2b,2b,{32}2b,2b,2b,2b,2b,2b,2b,2b,2b,2b,2b,2b,2b,2b,2b,2b,{64}2b,2b,2b,2b,2b,2b,2b,2b,2b,2b,2b,2b,2b,2b,2b,2b,
2b,2b,2b,2b,2b,2b,2b,2b,2b,2b,2b,2b,2b,2b,2b,2b,{8}3b,3b,3b,3b,{16}3b,3b,3b,3b,
3b,3b,3b,3b,{32}3b,3b,3b,3b,3b,3b,3b,3b,3b,3b,3b,3b,3b,3b,3b,3b,{64}3b,3b,3b,3b,3b,3b,3b,3b,3b,3b,3b,3b,3b,3b,3b,3b,
3b,3b,3b,3b,3b,3b,3b,3b,3b,3b,3b,3b,3b,3b,3b,3b,{8}4b,4b,4b,4b,{16}4b,4b,4b,4b,
4b,4b,4b,4b,{32}4b,4b,4b,4b,4b,4b,4b,4b,4b,4b,4b,4b,4b,4b,4b,4b,{64}4b,4b,4b,4b,4b,4b,4b,4b,4b,4b,4b,4b,4b,4b,4b,4b,
4b,4b,4b,4b,4b,4b,4b,4b,4b,4b,4b,4b,4b,4b,4b,4b,{8}5b,5b,5b,5b,{16}5b,5b,5b,5b,
5b,5b,5b,5b,{32}5b,5b,5b,5b,5b,5b,5b,5b,5b,5b,5b,5b,5b,5b,5b,5b,{64}5b,5b,5b,5b,5b,5b,5b,5b,5b,5b,5b,5b,5b,5b,5b,5b,
5b,5b,5b,5b,5b,5b,5b,5b,5b,5b,5b,5b,5b,5b,5b,5b,{8}6b,6b,6b,6b,{16}6b,6b,6b,6b,
6b,6b,6b,6b,{32}6b,6b,6b,6b,6b,6b,6b,6b,6b,6b,6b,6b,6b,6b,6b,6b,{64}6b,6b,6b,6b,6b,6b,6b,6b,6b,6b,6b,6b,6b,6b,6b,6b,
6b,6b,6b,6b,6b,6b,6b,6b,6b,6b,6b,6b,6b,6b,6b,6b,{8}7b,7b,7b,7b,{16}7b,7b,7b,7b,
7b,7b,7b,7b,{32}7b,7b,7b,7b,7b,7b,7b,7b,7b,7b,7b,7b,7b,7b,7b,7b,{64}7b,7b,7b,7b,7b,7b,7b,7b,7b,7b,7b,7b,7b,7b,7b,7b,
7b,7b,7b,7b,7b,7b,7b,7b,7b,7b,7b,7b,7b,7b,7b,7b,{8}8b,8b,8b,8b,{16}8b,8b,8b,8b,
8b,8b,8b,8b,{32}8b,8b,8b,8b,8b,8b,8b,8b,8b,8b,8b,8b,8b,8b,8b,8b,{64}8b,8b,8b,8b,8b,8b,8b,8b,8b,8b,8b,8b,8b,8b,8b,8b,
8b,8b,8b,8b,8b,8b,8b,8b,8b,8b,8b,8b,8b,8b,8b,8b,{8}1b,1b,1b,1b,{16}1b,1b,1b,1b,
1b,1b,1b,1b,{32}1b,1b,1b,1b,1b,1b,1b,1b,1b,1b,1b,1b,1b,1b,1b,1b,{64}1b,1b,1b,1b,1b,1b,1b,1b,1b,1b,1b,1b,1b,1b,1b,1b,
1b,1b,1b,1b,1b,1b,1b,1b,1b,1b,1b,1b,1b,1b,1b,1b,{8}2b,2b,2b,2b,{16}2b,2b,2b,2b,
2b,2b,2b,2b,{32}2b,2b,2b,2b,2b,2b,2b,2b,2b,2b,2b,2b,2b,2b,2b,2b,{64}2b,2b,2b,2b,2b,2b,2b,2b,2b,2b,2b,2b,2b,2b,2b,2b,
2b,2b,2b,2b,2b,2b,2b,2b,2b,2b,2b,2b,2b,2b,2b,2b,{8}3b,3b,3b,3b,{16}3b,3b,3b,3b,
3b,3b,3b,3b,{32}3b,3b,3b,3b,3b,3b,3b,3b,3b,3b,3b,3b,3b,3b,3b,3b,{64}3b,3b,3b,3b,3b,3b,3b,3b,3b,3b,3b,3b,3b,3b,3b,3b,
3b,3b,3b,3b,3b,3b,3b,3b,3b,3b,3b,3b,3b,3b,3b,3b,{8}4b,4b,4b,4b,{16}4b,4b,4b,4b,
4b,4b,4b,4b,{32}4b,4b,4b,4b,4b,4b,4b,4b,4b,4b,4b,4b,4b,4b,4b,4b,{64}4b,4b,4b,4b,4b,4b,4b,4b,4b,4b,4b,4b,4b,4b,4b,4b,
4b,4b,4b,4b,4b,4b,4b,4b,4b,4b,4b,4b,4b,4b,4b,4b,{8}5b,5b,5b,5b,{16}5b,5b,5b,5b,
5b,5b,5b,5b,{32}5b,5b,5b,5b,5b,5b,5b,5b,5b,5b,5b,5b,5b,5b,5b,5b,{64}5b,5b,5b,5b,5b,5b,5b,5b,5b,5b,5b,5b,5b,5b,5b,5b,
5b,5b,5b,5b,5b,5b,5b,5b,5b,5b,5b,5b,5b,5b,5b,5b,{8}6b,6b,6b,6b,{16}6b,6b,6b,6b,
6b,6b,6b,6b,{32}6b,6b,6b,6b,6b,6b,6b,6b,6b,6b,6b,6b,6b,6b,6b,6b,{64}6b,6b,6b,6b,6b,6b,6b,6b,6b,6b,6b,6b,6b,6b,6b,6b,
6b,6b,6b,6b,6b,6b,6b,6b,6b,6b,6b,6b,6b,6b,6b,6b,{8}7b,7b,7b,7b,{16}7b,7b,7b,7b,
7b,7b,7b,7b,{32}7b,7b,7b,7b,7b,7b,7b,7b,7b,7b,7b,7b,7b,7b,7b,7b,{64}7b,7b,7b,7b,7b,7b,7b,7b,7b,7b,7b,7b,7b,7b,7b,7b,
7b,7b,7b,7b,7b,7b,7b,7b,7b,7b,7b,7b,7b,7b,7b,7b,{8}8b,8b,8b,8b,{16}8b,8b,8b,8b,
8b,8b,8b,8b,{32}8b,8b,8b,8b,8b,8b,8b,8b,8b,8b,8b,8b,8b,8b,8b,8b,{64}8b,8b,8b,8b,8b,8b,8b,8b,8b,8b,8b,8b,8b,8b,8b,8b,
8b,8b,8b,8b,8b,8b,8b,8b,8b,8b,8b,8b,8b,8b,8b,8b,{8}1b,1b,1b,1b,{16}1b,1b,1b,1b,
1b,1b,1b,1b,{32}1b,1b,1b,1b,1b,1b,1b,1b,1b,1b,1b,1b,1b,1b,1b,1b,{64}1b,1b,1b,1b,1b,1b,1b,1b,1b,1b,1b,1b,1b,1b,1b,1b,
1b,1b,1b,1b,1b,1b,1b,1b,1b,1b,1b,1b,1b,1b,1b,1b,{8}2b,2b,2b,2b,{16}2b,2b,2b,2b,
2b,2b,2b,2b,{32}2b,2b,2b,2b,2b,2b,2b,2b,2b,2b,2b,2b,2b,2b,2b,2b,{64}2b,2b,2b,2b,2b,2b,2b,2b,2b,2b,2b,2b,2b,2b,2b,2b,
2b,2b,2b,2b,2b,2b,2b,2b,2b,2b,2b,2b,2b,2b,2b,2b,{8}3b,3b,3b,3b,{16}3b,3b,3b,3b,
3b,3b,3b,3b,{32}3b,3b,3b,3b,3b,3b,3b,3b,3b,3b,3b,3b,3b,3b,3b,3b,{64}3b,3b,3b,3b,3b,3b,3b,3b,3b,3b,3b,3b,3b,3b,3b,3b,
3b,3b,3b,3b,3b,3b,3b,3b,3b,3b,3b,3b,3b,3b,3b,3b,{8}4b,4b,4b,4b,{16}4b,4b,4b,4b,
4b,4b,4b,4b,{32}4b,4b,4b,4b,4b,4b,4b,4b,4b,4b,4b,4b,4b,4b,4b,4b,{64}4b,4b,4b,4b,4b,4b,4b,4b,4b,4b,4b,4b,4b,4b,4b,4b,
4b,4b,4b,4b,4b,4b,4b,4b,4b,4b,4b,4b,4b,4b,4b,4b,{8}5b,5b,5b,5b,{16}5b,5b,5b,5b,
5b,5b,5b,5b,{32}5b,5b,5b,5b,5b,5b,5b,5b,5b,5b,5b,5b,5b,5b,5b,5b,{64}5b,5b,5b,5b,5b,5b,5b,5b,5b,5b,5b,5b,5b,5b,5b,5b,
5b,5b,5b,5b,5b,5b,5b,5b,5b,5b,5b,5b,5b,5b,5b,5b,{8}6b,6b,6b,6b,{16}6b,6b,6b,6b,
6b,6b,6b,6b,{32}6b,6b,6b,6b,6b,6b,6b,6b,6b,6b,6b,6b,6b,6b,6b,6b,{64}6b,6b,6b,6b,6b,6b,6b,6b,6b,6b,6b,6b,6b,6b,6b,6b,
6b,6b,6b,6b,6b,6b,6b,6b,6b,6b,6b,6b,6b,6b,6b,6b,{8}7b,7b,7b,7b,{16}7b,7b,7b,7b,
7b,7b,7b,7b,{32}7b,7b,7b,7b,7b,7b,7b,7b,7b,7b,7b,7b,7b,7b,7b,7b,{64}7b,7b,7b,7b,7b,7b,7b,7b,7b,7b,7b,7b,7b,7b,7b,7b,
7b,7b,7b,7b,7b,7b,7b,7b,7b,7b,7b,7b,7b,7b,7b,7b,{8}8b,8b,8b,8b,{16}8b,8b,8b,8b,
8b,8b,8b,8b,{32}8b,8b,8b,8b,8b,8b,8b,8b,8b,8b,8b,8b,8b,8b,8b,8b,{64}8b,8b,8b,8b,8b,8b,8b,8b,8b,8b,8b,8b,8b,8b,8b,8b,
8b,8b,8b,8b,8b,8b,8b,8b,8b,8b,8b,8b,8b,8b,8b,8b,{8}1b,1b,1b,1b,{16}1b,1b,1b,1b,
1b,1b,1b,1b,{32}1b,1b,1b,1b,1b,1b,1b,1b,1b,1b,1b,1b,1b,1b,1b,1b,{64}1b,1b,1b,1b,1b,1b,1b,1b,1b,1b,1b,1b,1b,1b,1b,1b,
1b,1b,1b,1b,1b,1b,1b,1b,1b,1b,1b,1b,1b,1b,1b,1b,{8}2b,2b,2b,2b,{16}2b,2b,2b,2b,
2b,2b,2b,2b,{32}2b,2b,2b,2b,2b,2b,2b,2b,2b,2b,2b,2b,2b,2b,2b,2b,{64}2b,2b,2b,2b,2b,2b,2b,2b,2b,2b,2b,2b,2b,2b,2b,2b,
2b,2b,2b,2b,2b,2b,2b,2b,2b,2b,2b,2b,2b,2b,2b,2b,{8}3b,3b,3b,3b,{16}3b,3b,3b,3b,
3b,3b,3b,3b,{32}3b,3b,3b,3b,3b,3b,3b,3b,3b,3b,3b,3b,3b,3b,3b,3b,{64}3b,3b,3b,3b,3b,3b,3b,3b,3b,3b,3b,3b,3b,3b,3b,3b,
3b,3b,3b,3b,3b,3b,3b,3b,3b,3b,3b,3b,3b,3b,3b,3b,{8}4b,4b,4b,4b,{16}4b,4b,4b,4b,
4b,4b,4b,4b,{32}4b,4b,4b,4b,4b,4b,4b,4b,4b,4b,4b,4b,4b,4b,4b,4b,{64}4b,4b,4b,4b,4b,4b,4b,4b,4b,4b,4b,4b,4b,4b,4b,4b,
4b,4b,4b,4b,4b,4b,4b,4b,4b,4b,4b,4b,4b,4b,4b,4b,{8}5b,5b,5b,5b,{16}5b,5b,5b,5b,
5b,5b,5b,5b,{32}5b,5b,5b,5b,5b,5b,5b,5b,5b,5b,5b,5b,5b,5b,5b,5b,{64}5b,5b,5b,5b,5b,5b,5b,5b,5b,5b,5b,5b,5b,5b,5b,5b,
5b,5b,5b,5b,5b,5b,5b,5b,5b,5b,5b,5b,5b,5b,5b,5b,{8}6b,{16}6b,,{8}6b,6b,{16}6b,6b,6b,6b,
6b,6b,6b,6b,{32}6b,6b,6b,6b,6b,6b,6b,6b,6b,6b,6b,6b,6b,6b,6b,6b,{64}6b,6b,6b,6b,6b,6b,6b,6b,6b,6b,6b,6b,6b,6b,6b,6b,
6b,6b,6b,6b,6b,6b,6b,6b,6b,6b,6b,6b,6b,6b,6b,6b,{8}7b,7b,7b,7b,{16}7b,7b,7b,7b,
7b,7b,7b,7b,{32}7b,7b,7b,7b,7b,7b,7b,7b,7b,7b,7b,7b,7b,7b,7b,7b,{64}7b,7b,7b,7b,7b,7b,7b,7b,7b,7b,7b,7b,7b,7b,7b,7b,
7b,7b,7b,7b,7b,7b,7b,7b,7b,7b,7b,7b,7b,7b,7b,7b,{8}8b,8b,8b,8b,{16}8b,8b,8b,8b,
8b,8b,8b,8b,{32}8b,8b,8b,8b,8b,8b,8b,8b,8b,8b,8b,8b,8b,8b,8b,8b,{64}8b,8b,8b,8b,8b,8b,8b,8b,8b,8b,8b,8b,8b,8b,8b,8b,
8b,8b,8b,8b,8b,8b,8b,8b,8b,8b,8b,8b,8b,8b,8b,8b,{8}1b,1b,1b,1b,{16}1b,1b,1b,1b,
1b,1b,1b,1b,{32}1b,1b,1b,1b,1b,1b,1b,1b,1b,1b,1b,1b,1b,1b,1b,1b,{64}1b,1b,1b,1b,1b,1b,1b,1b,1b,1b,1b,1b,1b,1b,1b,1b,
1b,1b,1b,1b,1b,1b,1b,1b,1b,1b,1b,1b,1b,1b,1b,1b,{8}2b,2b,2b,2b,{16}2b,2b,2b,2b,
2b,2b,2b,2b,{32}2b,2b,2b,2b,2b,2b,2b,2b,2b,2b,2b,2b,2b,2b,2b,2b,{64}2b,2b,2b,2b,2b,2b,2b,2b,2b,2b,2b,2b,2b,2b,2b,2b,
2b,2b,2b,2b,2b,2b,2b,2b,2b,2b,2b,2b,2b,2b,2b,2b,{8}3b,3b,3b,3b,{16}3b,3b,3b,3b,
3b,3b,3b,3b,{32}3b,3b,3b,3b,3b,3b,3b,3b,3b,3b,3b,3b,3b,3b,3b,3b,{64}3b,3b,3b,3b,3b,3b,3b,3b,3b,3b,3b,3b,3b,3b,3b,3b,
3b,3b,3b,3b,3b,3b,3b,3b,3b,3b,3b,3b,3b,3b,3b,3b,{8}4b,4b,4b,4b,{16}4b,4b,4b,4b,
4b,4b,4b,4b,{32}4b,4b,4b,4b,4b,4b,4b,4b,4b,4b,4b,4b,4b,4b,4b,4b,{64}4b,4b,4b,4b,4b,4b,4b,4b,4b,4b,4b,4b,4b,4b,4b,4b,
4b,4b,4b,4b,4b,4b,4b,4b,4b,4b,4b,4b,4b,4b,4b,4b,{8}5b,5b,5b,5b,{16}5b,5b,5b,5b,
5b,5b,5b,5b,{32}5b,5b,5b,5b,5b,5b,5b,5b,5b,5b,5b,5b,5b,5b,5b,5b,{64}5b,5b,5b,5b,5b,5b,5b,5b,5b,5b,5b,5b,5b,5b,5b,5b,
5b,5b,5b,5b,5b,5b,5b,5b,5b,5b,5b,5b,5b,5b,5b,5b,{8}6b,6b,6b,6b,{16}6b,6b,6b,6b,
6b,6b,6b,6b,{32}6b,6b,6b,6b,6b,6b,6b,6b,6b,6b,6b,6b,6b,6b,6b,6b,{64}6b,6b,6b,6b,6b,6b,6b,6b,6b,6b,6b,6b,6b,6b,6b,6b,
6b,6b,6b,6b,6b,6b,6b,6b,6b,6b,6b,6b,6b,6b,6b,6b,{8}7b,7b,7b,7b,{16}7b,7b,7b,7b,
7b,7b,7b,7b,{32}7b,7b,7b,7b,7b,7b,7b,7b,7b,7b,7b,7b,7b,7b,7b,7b,{64}7b,7b,7b,7b,7b,7b,7b,7b,7b,7b,7b,7b,7b,7b,7b,7b,
7b,7b,7b,7b,7b,7b,7b,7b,7b,7b,7b,7b,7b,7b,7b,7b,{8}8b,8b,8b,8b,{16}8b,8b,8b,8b,
8b,8b,8b,8b,{32}8b,8b,8b,8b,8b,8b,8b,8b,8b,8b,8b,8b,8b,8b,8b,8b,{64}8b,8b,8b,8b,8b,8b,8b,8b,8b,8b,8b,8b,8b,8b,8b,8b,
8b,8b,8b,8b,8b,8b,8b,8b,8b,8b,8b,8b,8b,8b,8b,8b,{8}1b,1b,1b,1b,{16}1b,1b,1b,1b,
1b,1b,1b,1b,{32}1b,1b,1b,1b,1b,1b,1b,1b,1b,1b,1b,1b,1b,1b,1b,1b,{64}1b,1b,1b,1b,1b,1b,1b,1b,1b,1b,1b,1b,1b,1b,1b,1b,
1b,1b,1b,1b,1b,1b,1b,1b,1b,1b,1b,1b,1b,1b,1b,1b,{8}2b,2b,2b,2b,{16}2b,2b,2b,2b,
2b,2b,2b,2b,{32}2b,2b,2b,2b,2b,2b,2b,2b,2b,2b,2b,2b,2b,2b,2b,2b,{64}2b,2b,2b,2b,2b,2b,2b,2b,2b,2b,2b,2b,2b,2b,2b,2b,
2b,2b,2b,2b,2b,2b,2b,2b,2b,2b,2b,2b,2b,2b,2b,2b,{8}3b,3b,3b,3b,{16}3b,3b,3b,3b,
3b,3b,3b,3b,{32}3b,3b,3b,3b,3b,3b,3b,3b,3b,3b,3b,3b,3b,3b,3b,3b,{64}3b,3b,3b,3b,3b,3b,3b,3b,3b,3b,3b,3b,3b,3b,3b,3b,
3b,3b,3b,3b,3b,3b,3b,3b,3b,3b,3b,3b,3b,3b,3b,3b,{8}4b,4b,4b,4b,{16}4b,4b,4b,4b,
4b,4b,4b,4b,{32}4b,4b,4b,4b,4b,4b,4b,4b,4b,4b,4b,4b,4b,4b,4b,4b,{64}4b,4b,4b,4b,4b,4b,4b,4b,4b,4b,4b,4b,4b,4b,4b,4b,
4b,4b,4b,4b,4b,4b,4b,4b,4b,4b,4b,4b,4b,4b,4b,4b,{8}5b,5b,5b,5b,{16}5b,5b,5b,5b,
5b,5b,5b,5b,{32}5b,5b,5b,5b,5b,5b,5b,5b,5b,5b,5b,5b,5b,5b,5b,5b,{64}5b,5b,5b,5b,5b,5b,5b,5b,5b,5b,5b,5b,5b,5b,5b,5b,
5b,5b,5b,5b,5b,5b,5b,5b,5b,5b,5b,5b,5b,5b,5b,5b,{8}6b,6b,6b,6b,{16}6b,6b,6b,6b,
6b,6b,6b,6b,{32}6b,6b,6b,6b,6b,6b,6b,6b,6b,6b,6b,6b,6b,6b,6b,6b,{64}6b,6b,6b,6b,6b,6b,6b,6b,6b,6b,6b,6b,6b,6b,6b,6b,
6b,6b,6b,6b,6b,6b,6b,6b,6b,6b,6b,6b,6b,6b,6b,6b,{8}7b,7b,7b,7b,{16}7b,7b,7b,7b,
7b,7b,7b,7b,{32}7b,7b,7b,7b,7b,7b,7b,7b,7b,7b,7b,7b,7b,7b,7b,7b,{64}7b,7b,7b,7b,7b,7b,7b,7b,7b,7b,7b,7b,7b,7b,7b,7b,
7b,7b,7b,7b,7b,7b,7b,7b,7b,7b,7b,7b,7b,7b,7b,7b,{8}8b,8b,8b,8b,{16}8b,8b,8b,8b,
8b,8b,8b,8b,{32}8b,8b,8b,8b,8b,8b,8b,8b,8b,8b,8b,8b,8b,8b,8b,8b,{64}8b,8b,8b,8b,8b,8b,8b,8b,8b,8b,8b,8b,8b,8b,8b,8b,
8b,8b,8b,8b,8b,8b,8b,8b,8b,8b,8b,8b,8b,8b,8b,8b,{8}1b,1b,1b,1b,{16}1b,1b,1b,1b,
1b,1b,1b,1b,{32}1b,1b,1b,1b,1b,1b,1b,1b,1b,1b,1b,1b,1b,1b,1b,1b,{64}1b,1b,1b,1b,1b,1b,1b,1b,1b,1b,1b,1b,1b,1b,1b,1b,
1b,1b,1b,1b,1b,1b,1b,1b,1b,1b,1b,1b,1b,1b,1b,1b,{8}2b,2b,2b,2b,{16}2b,2b,2b,2b,
2b,2b,2b,2b,{32}2b,2b,2b,2b,2b,2b,2b,2b,2b,2b,2b,2b,2b,2b,2b,2b,{64}2b,2b,2b,2b,2b,2b,2b,2b,2b,2b,2b,2b,2b,2b,2b,2b,
2b,2b,2b,2b,2b,2b,2b,2b,2b,2b,2b,2b,2b,2b,2b,2b,{8}3b,3b,3b,3b,{16}3b,3b,3b,3b,
3b,3b,3b,3b,{32}3b,3b,3b,3b,3b,3b,3b,3b,3b,3b,3b,3b,3b,3b,3b,3b,{64}3b,3b,3b,3b,3b,3b,3b,3b,3b,3b,3b,3b,3b,3b,3b,3b,
3b,3b,3b,3b,3b,3b,3b,3b,3b,3b,3b,3b,3b,3b,3b,3b,{8}4b,4b,4b,4b,{16}4b,4b,4b,4b,
4b,4b,4b,4b,{32}4b,4b,4b,4b,4b,4b,4b,4b,4b,4b,4b,4b,4b,4b,4b,4b,{64}4b,4b,4b,4b,4b,4b,4b,4b,4b,4b,4b,4b,4b,4b,4b,4b,
4b,4b,4b,4b,4b,4b,4b,4b,4b,4b,4b,4b,4b,4b,4b,4b,{8}5b,5b,5b,5b,{16}5b,5b,5b,5b,
5b,5b,5b,5b,{32}5b,5b,5b,5b,5b,5b,5b,5b,5b,5b,5b,5b,5b,5b,5b,5b,{64}5b,5b,5b,5b,5b,5b,5b,5b,5b,5b,5b,5b,5b,5b,5b,5b,
5b,5b,5b,5b,5b,5b,5b,5b,5b,5b,5b,5b,5b,5b,5b,5b,{4}6b>3-7>2b[4:1],,8b-5>4v1<8b[4:1],
{1},,,,{4},,
&lv_5=13+
&des_5=哈吉猫
&inote_5=
(180){4},{1},{16},,
{8}2,3,4h[8:1],,7,
6,5h[8:1],,3,2,1h[2:1],,6,
7,8,,6,6,6h[2:1],5,4,
3,3,,1h[4:3],5,5,6,7,
8,8,,8,7,6/5,,1,
2,3/4,5,6,7,8<6[4:1],,1/8,
2,{16}3,,,,{32},7/8,{16},{8}6/1,5/2h[8:3],,5,
7,7bx/2bx,,1>4[4:1]/8<5[4:1],8/1,8bx/1bx,{2},{4}2/7,
2/7,3/6,
3/6,{8}4/5,4,4/5,6,7/2,7,
{4}7/2,{8}4,4,5,6,7,8,
4,3,6,7,8,4,3,2,
{4}1,{8}4/3,2x,6/5,7x,4/3,1x,
6/5,8x,4/2,8x/1x,5/7,8x/1x,4x/2x,1bx/8bx,
5x/7x,8bx/1bx,{32}1x,2x,3x,4x,8x,7x,6x,5x,2x,3x,4x,5x,7x,6x,5x,4x,B4,B5,B6,B7,B8,B1,B2,B3,
{4}Cfh[4:1],,,{8},1<4[4:1],
8,1,{4},{8}8pp6[4:1],3<6[8:1],8bx,3b,
{4},{16}6,5,7,4,8,3,{8}1,2x>7[2:1],8bx/1bx,
1bx/8bx,E7/B6/E6/B5/E5/B4/B3/E3/Cf/E4/B7/E8/B8/E1/B1/E2/B2,{2},{8}8<5[4:1]/1>4[4:1],2/7,
{2}1/8,{8}E3/E7,B7/B6/B2/B3,{4},{8},Cfh[8:3],
{4},,,{16},,{32},E1/E5/E7/E3,
{16},,,{32},E8/E6/E4/E2,{16},,,{32},Cf,{16},,,{8}4x>5[8:5]/5x<4[8:5],
4x/5x,{16}4x/5x,,{4},,,{2}5h[2:1],
{16}4xh[32:1],5xh[32:1],4xh[32:1],5xh[32:1],{8},4x/5x,
4x/5x,{32}5,6,7,8,1,2,3,4,5,6,7,8,1,2,3,4,5,6,7,8,{8}1bx/2bx,4bx/5bx,
7bx/8bx,{4},{16}4,5,3,6,2,7,{8},8<1[2:1]/1>8[2:1],
8/1,8b/1b,,,{4},{8}1x>8[4:1],8x,
{2}1x,{8}8x>3[8:1]/7x<4[8:1],7/8,{4},{8},4bx<4[8:9],
{4},B5,E7,
B8,B1,{8}E3,{4},{8}4/5,
4/5,4/5,{16}4,5,4,5,3,6,3,6,{24}2x,3x,4x,7x,6x,5x,
3x,4x,5x,6x,5x,4x/Ch[24:7],{4},,,,{8}5/4,
3,4/5,6,5/4,3,
4/5,6,5/4,2,4/5,7,5/4,{32}1,{16},{32},
{8}4/5,8,3h[8:1],4h[8:1],5h[8:1],6h[8:1],7h[8:1],8h[8:3],
1,1,{4}Ch[4:1],,{16}1,8,2,7,
3,6,4,5,{8},1>4[8:1],1,1,,8<5[8:1],
8,8,{16}4,4,3,3,2,2,1,1,{4}B7/B6/B2/B3,
{16},,{64},B8/B1/B5/B4,{32},{16},{4},{8}B7/B6/B2/B3,{4},{8}Cf,
,{16}4x,5x,{8}4x,6/3,7/2,2x-4[8:1]/7x-5[8:1],2x/7x,7bx/2bx,
{4},{8}1/2-5[8:1],{16}2,1,{4}2,{8}8/7-4[8:1],{16}7,8,
{4}7,{8}1/2-4[8:1],{16}2,1,{4}2,{8}8/7-5[8:1],{16}7,8,
{4}7,{16}2-6[32:5],1,2,1,{4}2,{16}7-3[8:1],8,7,8,
{4}7,{16}1,8,1,8,{4}1,{16}1,8,2,7,
3,6,{8}4,4/5,3,4/5,6,4/5,3,
4/5,6,4/5,2,4/5,7,5/4,2,
4/5,7,{16}1,2,3,4,8,7,6,5,{32}1,2,3,4,5,6,7,8,
1,2,3,4,{8},7/2,{16}1x,8x,{8}1x,8x-5b[8:1]/1x-4b[8:1],1x/8x,8bx/1bx,
{4},{8}3,{16}3,4,2,{8},{16}2,2,3,3,4,
4,5,{8}5,6,{16}6,5,7,{8},{16}7,7,6,6,5,
5,4,{8}4,4,{16}3,5,{4}4,{16}4,5,3,6,
2,7,1,8,{8}1,{16}1,8,{4}1,{32}1,2,3,4,5,6,7,8,
1,2,3,4,5,6,7,8,{8}1,{16}1,8,{4}2,{16}1,1,2,2,
3,3,4,4,{8}8,{16}8,1,{4}7,{16}8,8,7,7,
6,6,5,5,{8}4,{16}4,5,{4}4,{16}4,5,3,6,
2,7,1,8,{32}2bx,A2,{16}B2f,{32}7bx,A7,{16}B7f,{8},Ch[8:3],{2},{8}2x,
7x,{16}2x,{8},{16}7x,{8},2x,
{4}7x,{8}2x,7x,{16}2x,{8},{16}7x,{8},2x,
{4},{8}2b/Ch[16:1],{16}7b/Ch[16:1],,2b/Ch[8:1],{8},{16}7b/Ch[8:1],{8},2b/Ch[16:1],
{16}7b/Ch[8:1],{8},{16},{8}2b/Ch[16:1],{16}7b/Ch[16:1],,{2}2bz6b[4:1]*s6b[4:1],
{4},{8}5/4,2,4/5,7,5/3,2,
6/4,7,5/3,1/2,4/6,7/8,5/3,2/8,
4/6,1/7,{32}1,2,3,4,5,6,7,8,1,2,3,4,5,6,7,8,1x/A1/D2,2x/A2/D3,3x/A3/D4,4x/A4/D5,5x/A5/D6,6x/A6/D7,7x/A7/D8,8x/A8/D1,
{16},,,4/3,{8}2,{16}5/6,7,,3/4,{8}2,{16},5/6,{8}7,
{32}1x>6[8:31]/5x<2[8:31],2x>6[32:123]/6x<2[32:123],3x<6[16:61]/7x>2[16:61],4x<6[32:121]/8x>2[32:121],,{16},{32},{4}Ch[1:2],{1},,,{4},,,{8}4,
4,4,{16}4,5,3,6,{8}4,
{16}4,5,3,6,{8}5,5,5,{16}5,6,4,7,{8}5,
{16}7,6,5,4/3,{8},1/8h[4:1],2,3,,8/1h[4:1],
7,6,{4}Cfh[4:3],,B8/B1,
B7/B6/B2/B3,Ch[4:5]/4<4[2:7],{1},{4},B7/B6,
,Ch[4:3],,,,B8/B1,
B7,B6,
B5/B4,{8}4/5,3bx,4/5,6bx,4/5,3bx,
4/5,6bx,5/3,2bx,4/6,7bx,5/3,2bx,
4/6,7bx,{16}1,2,3,4,5,6,7,8,{32}1,2,3,4,5,6,7,8,
1,2,3,4,5,6,7,8/Ch[32:9],{4},,{16}E3,E7,B2,B7,
B1,B8,{8}Ch[8:15],{1},{4},,,,
Ch[8:1],Ch[8:1],Ch[8:1],
Ch[8:1],Cfh[2:1],{8},{4},{8}3/7,
8/2-6[8:1],1,2b/8-4<7[2:1],1,2/8b,3,2,1,
{4}8,{16}8,7,1,6,2,5,3,4,{8},6/2,
1/7-3[8:1],{16}8,,{8}7b/1-5>2[2:1],8,{4}7/1b,{8}6,7,
{2}C/B8/B1,{8}8x<5[8:1]/1x>4[8:1],8x/1x,{4},{8}B2/B3,
Ch[8:3],{4},E2,B2,
6b/B3,7b/E4,{8}8b/C,{4},{8}8qq4b[8:5]/1pp5b[8:5],
8/1,1/8,{4},,,{8}C,
B7/B2/B6/B3,,E1/E5,B2/B6,A3/A7,,6x/4x,
3/7,8/2-6[8:1],1,2b/8-4<7[2:1],1,2/8b,3,2,
1,{4},{16}8,7,1,6,2,5,{8}3,5x/3x,
6/2,1/7-3[8:1],8,7b/1-5>2[8:3],8,7/1b,6,7,
{4}8,,{8}8/1,{32}8/1,2,3,4,5,6,7,8,1,2,3,4,
{4},{16}4,5,4,5,3,6,3,6,2,7,2,7,
1,8,1,8,3,4,3,4,2,5,2,5,1,6,1,6,
8,7,8,7,{32}1,2,3,4,5,6,7,8,1,2,3,4,5,6,7,8,1,2,3,4,5,6,7,8,
1,2,3,4,5,6,7,8,1,2,3,4,5,6,7,8,{48}1,2,3,4,5,6,{64}7,8,1,2,3,4,{32},{4}Ch[2:1],
,{8},3h[8:3],4,5,6,3h[8:3],
5,6,7,3h[8:3],6,7,E7,E3,
B8,{16}B1,,{8},6h[2:1],5,4,3,2,
6h[8:5],4,3,2,3,4,E3,E7,
B1,B8,{1},,,,,,,{4},
&lv_7=12?
&des_7=哈吉猫
&inote_7=
(180){4},{1},{16},,
{8}2,3,4h[8:1],,7,
6,5h[8:1],,3,2,1h[2:1],,6,
7,8,,6,6,6h[2:1],5,4,
3,3,,1h[4:3],5,5,6,7,
8,8,,8,7,6/5,,1,
2,3/4,5,6,7,8<6[4:1],,1/8,
2,{16}3,,,,{32},7/8,{16},{8}6/1,5/2h[8:3],,5,
7,7bx/2bx,,1>4[4:1]/8<5[4:1],8/1,8bx/1bx,{2},{4}2/7,
2/7,3/6,
3/6,{8}4/5,4,4/5,6,7/2,7,
{4}7/2,{8}4,4,5,6,7,8,
4,3,6,7,8,4,3,2,
{4}1,{8}4/3,2b,6/5,7b,4/3,1b,
6/5,8b,4/2,1b/8b,5/7,8b/1b,4/2bx,1b/8b,
5/7bx,8b/1b,{32}1b,2,3,4bx,8b,7,6,5bx,2b,3,4,5bx,7b,6,5,4bx,B4,B5,B6,B7,B8,B1,B2,B3,
{4}Cfh[4:1],,,{8},{32}1x>6[8:1],2x>6[32:3],3x<6[16:1],4x<6[32:1],
1x-5[8:1],2,3,4,{8},{4}1x,{8}8pp6[4:1],3<6[8:1],8bx,3b,
{4},{16}6,5,7,4,8,3,{8}1,2x>7[2:1],8bx/1bx,
1bx/8bx,{32}E7/B6/E6/B5/E5/B4/B3/E3/Cf/E4,B7/B2/E2/B1/B8/E8/E1,{4},,{16},{8}8<5[4:1]/1>4[4:1],2/7,
{2}1/8,{8}E3/E7,B7/B6/B2/B3,{4},{8},Cfh[8:3],
{4},,,{16},,{32},E1/E5/E7/E3,
{16},,,{32},E8/E6/E4/E2,{16},,,{32},Cf,{16},,,{8}4x>5[8:5]/5x<4[8:5],
4x/5x,{16}4x/5x,,{4},,,{2}4h[2:1],
{16}5xh[32:1],4xh[32:1],5xh[32:1],4xh[32:1],{8},{32}4,4,4,4,
{8},{32}5,6,7,8,1,2,3,4,5,6,7,8,1,2,3,4,5,6,7,8,{8}1bx/2bx,4bx/5bx,
7bx/8bx,{4},{16}4,5,3,6,2,7,{8},1bx>8[2:1]/8bx<1[2:1],
8bx/1bx,8x/1x,,,{4},{8}1x>8[4:1],8x,
{2}1x,{8}8x>3[8:1]/7x<4[8:1],7/8,{4},{8},4bx<4[8:9],
{4},Cf,Cf,
Cf,Cf,{8}Cf,{4},{8}4/5,
4/5,4/5,{16}4,5,4,5,3,6,3,6,{24}2x,3x,4x,7x,6x,5x,
3x,4x,5x,6x,5x,4x/Ch[24:7],{4},,,,{8}4/3,
2,3/4,2,1/8,7,
1/8,7,5/6,4,6/5,4,4/3,{32}2,{16},{32},
{8}3/4,2,3h[8:1],4h[8:1],5h[8:1],6h[8:1],7h[8:1],8h[8:3],
1,1,{4}Ch[4:1],,{16}1,8,2,7,
3,6,4,5,{8},1>4[8:1],1,1,,8<5[8:1],
8,8,{16}4,4,3,3,2,2,1,1,{4}B7/B6/B2/B3,
{16},,{64},B8/B1/B5/B4,{32},{16},,,,{32},E7/E3,{4},{8},Cf,
,{16}4x,5x,{8}4x,6/3,7/2,7/2,8/1,8/1,
{4}1-5[65.1667##65.3333]/8-4[65.1667##65.3333],{8}2/1s5[65.1667##65.3333],2,{4}2/3,{8}7/8s4[65.1667##65.3333],7,
{4}6/7,{8}2/1z5[65.1667##65.3333],2,{4}2/3,{8}7/8z4[65.1667##65.3333],7,
{4}7/6,{8}2/1p5[65.1667##65.3333],2,{4}2/3,{8}7/8p4[65.1667##65.3333],7,
{4}7/6,{8}2/1q5[65.1667##65.3333],2,{4}2/3,{8}7/8q4[65.1667##65.3333],7,
{4}7/6,{8}4/5,3,4/5,6,4/5,3,
4/5,6,4/5,2,4/5,7,5/4,2,
4/5,7,{16}1,2,3,4,8,7,6,5,{32}1,2,3,4,5,6,7,8,
1,2,3,4,{8},7/2,{16}1x,8x,{8}1,8x-5b[8:1]/1x-4b[8:1],,8/1,
{4},{8}3,{16}3,4,2,{8},{16}2,2,3,3,4,
4,5,{8}5,6,{16}6,5,7,{8},{16}7,7,6,6,5,
5,4,{8}4,4,{16}3,5,{4}4,{16}4,5,3,6,
2,7,1,8,{8}1,{16}1,8,{4}1,{32}1,2,3,4,5,6,7,8,
1,2,3,4,5,6,7,8,{8}1,{16}1,8,{4}2,{16}1,1,2,2,
3,3,4,4,{8}8,{16}8,1,{4}7,{16}8,8,7,7,
6,6,5,5,{8}4,{16}4,5,{4}4,{16}4,5,3,6,
2,7,1,8,{32}2bx,A2,{16}B2f,{32}7bx,A7,{16}B7f,{8},Ch[8:3],{2},{8}2x,
7x,{16}2x,{8},{16}7x,{8},2x,
{4}7x,{8}2x,7x,{16}2x,{8},{16}7x,{8},2x,
{4},{8}2b/Cfh[16:1],{16}7b/Cfh[16:1],,2b/Cfh[32:3],{8},{16}7b/Cfh[32:3],{8},2b/Cfh[16:1],
{16}7b/Cfh[8:1],{8},{16},{8}2b/Cfh[16:1],{16}7b/Cfh[16:1],,{2}2bz6b[4:1]*s6b[4:1],
{4},{8}5/4,2,4/5,7,5/3,2,
6/4,7,5/3,1/2,4/6,7/8,5/3,2/8,
4/6,1/7,{32}1,2,3,4,5,6,7,8,1,2,3,4,5,6,7,8,1bx/A1f,2bx/A2f,3bx/A3f,4bx/A4f,5bx/A5f,6bx/A6f,7bx/A7f/A8f,8bx/Cf,
{16},,,4/3,{8}2,{16}5/6,7,,3/4,{8}2,{16},5/6,{8}7,
{32}1>1[8:31]/5<5[8:31],2>1[32:123]/6<5[32:123],3<1[16:61]/7>5[16:61],4<1[32:121]/8>5[32:121],,{16},{32},{4}Ch[4:15],{1},,,{4},,,{8}4,
4,4,{16}4,5,3,6,{8}4,
{16}4,5,3,6,{8}5,5,5,{16}5,6,4,7,{8}5,
{16}7,6,5,4/3,{8},1/8h[4:1],2,3,,8/1h[4:1],
7,6,{4}Cfh[4:3],,B8/B1,
B7/B6/B2/B3,Ch[4:5]/4<4[2:7],{1},{4},B7/B6,
,B2/B3,,,,B8/B1,
B7,B6,
B5/B4,{8}4/5,3bx,4/5,6bx,4/5,3bx,
4/5,6bx,5/3,2bx,4/6,7bx,5/3,2bx,
4/6,7bx,{16}1,2,3,4,5,6,7,8,{32}1,2,3,4,5,6,7,8,
1,2,3,4,5,6,7,8/Ch[32:9],{4},,{16}E3,E7,B2,B7,
B1,B8,{8}Ch[8:15],{1},{4},,,,
Ch[8:1],Ch[8:1],Ch[8:1],
Ch[8:1],Cfh[2:1],{8},{4},{8}3/7,
8/2-6[8:1],1,2b/8-4<7[2:1],1,2/8b,3,2,1,
{4},{16}8,7,1,6,2,5,3,4,{8},6/2,
1/7-3[8:1],{16}8,,{8}7b/1-5>2[2:1],8,{4}7/1b,{8}6,7,
{2}B7/B6/B5/B8/B1/B2/B3/B4/Cf,{8}8x<5[8:1]/1x>4[8:1],8x/1x,{4},{8}B2/B3,
Ch[8:5],{4},E2,B2,
6b/B3,7b/E4,{8}8b/C,{4},{8}8bqq4b[8:5]/1bpp5b[8:5],
8b/1b,8b/1b,{4},,,{8}C,
B7/B2/B6/B3,,E1/E5,B2/B6,A3/A7,,6x/4x,
3/7,8/2-6[8:1],1,2b/8-4<7[2:1],1,2/8b,3,2,
1,{4},{16}8,7,1,6,2,5,{8}3,5x/3x,
6/2,1/7-3[8:1],8,7b/1-5>2[2:1],8,7/1b,,6,
{4}7,,{8}8/1,{32}8/1,2,3,4,5,6,7,8,1,2,3,4,
{16}8,5,8,4,8,3,8,2,8,4,8,3,8,2,8,1,
8,3,8,2,8,1,8,8,8,8,8,8,8,8,8,8,
8,8,8,8,{32}1,2,3,4,5,6,7,8,1,2,3,4,5,6,7,8,1,2,3,4,5,6,7,8,
1,2,3,4,5,6,7,8,{48}1,2,3,4,5,6,7,8,1,2,3,4,5,6,7,8,1,2,3,4,5,6,7,8,{4}Ch[2:1],
,{8},3h[8:3],4,5,6,3h[8:3],
5,6,7,3h[8:3],6,7,E7,E3,
B8,{16}B1,,{8},6h[2:1],5,4,3,2,
6h[8:5],4,3,2,3,4,E3,E7,
B1,B8,{1},,,,,,,{4},
