&title=Better Graphic Animation
&artist=ルゼ
&first=0
&des=GleamofLight
&lv_5=14
&inote_1=
&inote_5=(180)
{16},,,,,,,,
{16}1,,,,1,,,,1,,,2,2,,3,,46,,7,,35,,2,,8,1,8,1,8h[8:1],,,,1p5[8:1]*v4[8:1],,2,,1,,,,6,,3,4,2h[2:1],,,,1,,1,,1,,1,,8,2,8,2,8,2,8,2,
8,,,,8,,,,8,,,7,7,,6,,53,,2,,64,,7,,1,8,1,8,1h[8:1],,,,8-3[8:1]*v5[8:1],,7,,8,,,,1-6[8:1]*v4[8:1],,2,,1-5[8:1],,,,1-7[8:1]*-3[8:1],,,,1w5[8:1],,,,1,,,,1b,,,,
37,,,,35,,,,37,,,3,3-8[8:1]/1,,7-4[8:1],,3-6[8:1],,7-2[8:1],,3,,7,,3,1,3,1,3h[8:1],,,,8-4[8:1],,7,,68,,,,2h[4:1],,3,4,5h[2:1],,,,3,,3,,3,,3,,3,5,3,5,4,6,4,6,
4,,,,64,,,,62,,,6,6-1[8:1]/8,,2-5[8:1],,6-3[8:1],,2-7[8:1],,6,,2,,6,8,6,8,6h[8:1],,,,1/8>4[8:1],,8,,78,,,,1<5[8:1]/8,,1,,12,,,,4bh[4:3],,,,8b,,8b,,8b,,8bh[8:1],,,,,,
1p4[4:1],,,,4^1[4:1],,,,1p4[4:1],,,,8,,8q5[4:1],,,,5^8[4:1],,,,8q5[4:1],,,,,,1-5[4:1],,,,5<1[4:1],,,,1>5[4:1],,,,5-1[4:1],,,,8,,8,,8-4[4:1],,,,4>8[4:1],,,,8<4[4:1],,,,4-8[4:1],,,,8w4[2:1],,,,,,,,,,,,,,1w5[2:1],,,,,,,,,,,,,,,,,,1-3-5[8:3],,,,,,5-7-1[8:3],,,,,,1p5[4:1],,,,5q1[4:1],,,,,,,,2q6[8:1],,,,,,,,
3,4,,4,3,,3,4,,4,3,,25,,25,,6,5,,5,6,,6,5,,5,6,,47,,47,,1,8,,8,1,,1,8,,8,1,,27,,27,,5,4,5,,36,,1,8,,,7,,6,,5,,
2,2,,4,4,,5,5,,7,7,,18,,18,,6,6,,8,8,,1,1,,3,3,,45,,45,,2,2,,7,7,,1,1,,8,8,,26,,35,,4,4,4,,35,,3,6,,,1b<3[1:1],8b,1b,,,,,
,,,,,,,,,,,,,,,,1h[8:1],,,1h[8:1],,,8h[8:1],,,8h[8:1],,,18,,,,1,1,1,1,1,1,1,1,1,1,1,1,1,1,1,1,1,1,1,1,1,1,1,1-5[8:1],1,1,1,1b,,,,
8qq4[2:1],,1,,2,,3,,4<8[4:1],,,,1,,1,,1pp5[2:1],,8,,7,,6,,5>1[4:1],,,,
8,,8,,8-4-2[4:1],,1,,2-8-6[4:1],,5,,5,,,,1,,1,,1-5-7[4:1],,8,,7-1-3[4:1],,4,,4,,,,
8,,8,,2b/7,,1,,1,,2b,8,1,8,2b,8,1,8,2bh[4:1],,,,,,,,,,7/2b,,,,,,,3,
37,,,,35,,,,37,,,3,3-8[8:1]/1,,7-4[8:1],,3-6[8:1],,7-2[8:1],,3,,7,,3,1,3,1,3h[8:1],,,,8-4[8:1],,7,,68,,,,2h[4:1],,3,4,5h[2:1],,,,3,,3,,3,,3,,3,5,3,5,4,6,4,6,
4,,,,64,,,,62,,,6,6-1[8:1]/8,,2-5[8:1],,6-3[8:1],,2-7[8:1],,6,,2,,6,8,6,8,6h[8:1],,,,1/8>4[8:1],,8,,78,,,,1<5[8:1]/8,,1,,12,,,,4bh[4:3],,,8b,8b,,8b,,8bh[4:1],,,,,,,,
{8},,,,,,,,,,,,,,,,,,,,,,,,,,,,,,,,,,,,,,,8h[4:3]/1h[4:3],,,,,,,,,2h[8:3],,,3h[8:3],,,4h[8:1]/5h[8:1],,4-8[8:1]/5-1[8:1],,,,2^4[8:1]/7^5[8:1],,,,8h[8:5],1,,1,,1,,7h[8:5]/1,,1,,1,,1,6,1h[2:1],5,5,,5,,5,,5/2h[4:1],,5,3h[8:1],5,4h[8:1],5,5h[8:1],,4p1[2:1]/5q8[2:1],,,,,,,2p5[2:1]/7q4[2:1],,,,,,,,
{16}1h[8:1],,,2h[8:1],,,3h[8:1],,,8h[8:1],,,7h[8:1],,,6h[8:1],,,15,,15,,26,,26,,3,7,3,7,4,8,4,8,4^1[8:1],,,,4/7-3[8:1],,,,2-5[8:1]/7,,,,21,,8-4[8:1],,,,7^4[8:1]/8,,,,7/3h[8:1],,,,,,3/6-1[8:1],,,,3-8[8:1]/6,,,,3/6^3[8:1],,,,6/1h[8:1],,,,,,2,,2-6[8:1],,,,1-5[8:1],,,,8-4[8:1],,,,7-3[8:1],,,,4w8[2:1],,,,,,,,,,,,,,5w1[2:1],,,,,,,,,,,,,,,,
{16}8h[8:1],,,7h[8:1],,,6h[8:1],,,1h[8:1],,,2h[8:1],,,3h[8:1],,,84,,84,,73,,73,,6,2,6,2,5,1,5,1,5^8[8:1],,,,5/2-6[8:1],,,,7-4[8:1]/2,,,,78,,1-5[8:1],,,,2^5[8:1]/1,,,,2/6h[8:1],,,,,,6/3-8[8:1],,,,6-1[8:1]/3,,,,6/3^6[8:1],,,,3/8h[8:1],,,,,,7,,7-3[8:1],,,,8-4[8:1],,,,1-5[8:1],,,,2-6[8:1],,,,4w8[2:1],,,,,,,,,,,,,5h[2:1],,,,1h[4:1],,,,,,{32}26,37,48,15,{16},,4,1,3,8,2^5[8:1],,,,,,6qq8[4:1],,,,,,2<3[4:1],,,,3v5[8:1],,,,,,,,1-4[8:1]*-6[8:1],,,,,,,,
1,1,1,1,
1,1,1,1,
1,1,1,1,
1,1,1,1,
1,1,1,1,
1,1,1,1,
1,1,1,1,
1,1,1,1,
1,1,1,1,
1,1,1,1,
1,1,1,1,
1,1,1,1,
1,1,1,1,
1,1,1,1,
1,1,1,1,
1,1,1,1,
1b,1,1,1,
1b,1,1,1,
1b,1,1,1,
1b,1,1,1,
1b,1,1,1,
1b,1,1,1,
1b,1,1,1,
1b,1,1,1,
1b,1,1b,1,
1b,1,1b,1,
1b,1,1b,1,
1b,1,1b,1,
1b,1b,1b,1b,
1b,1bw5b[8:1],1b,1b,
1b,,
