&title=天真爛漫高襟姫
&artist=かぴたろう feat.初音ミク
&first=-0.387
&des=布衣
&lv_5=13+
&des_5=布衣
&inote_5=
(170){4},,{2}1h[8:5],
{8},,,6,{2}7h[8:5],
{8},,,2,{2}3h[8:5],
{8},,,6,{2}5h[8:7],
{4}4,,,7b/2b,
{8}3,5,6h[8:3],4-1[8:1],,4,,7,
6,4,3h[8:3],5-8[8:1],,5,,3,
4,6,7h[8:3],4-1[8:1],,4,,6,
5-1[8:1],5,2-4[8:1],2,8-6[8:1],8,5,4,
2,8,7h[8:3],1v4[8:1],,1,,7,
6,1,2h[8:3],8v5[8:1],,8,,2,
3,7,6h[8:3],2,3,4,5,7,
1/2,2-6[8:1]/1-5[8:1],3/8,2b/1b,,7,{4}7,
4/6h[2:1],3,2-4[8:1],1/2,
5/3h[2:1],6,7-5[8:1],8/7,
4/6h[2:1],3,2-4[8:1],1/2,
5/3h[2:1],6,{8}7,8/1,2,5/3h[8:5],
{4}6,7,8-5[8:1],8/2,
3/6h[2:1],2,1-4[8:1],1/7,
6/3h[2:1],7,8-5[8:1],8/1,
3/6h[2:1],2,{8}1,7/8,6,5h[8:5],
{4}3,2,1-5[8:1],1/6,
6/4h[2:1],7,8-4[8:1],8/3,
3/5h[2:1],2,1-5[8:1],1/6,
6/4h[2:1],7,{8}8,2/1,3,4h[8:5],
{4}6,7,8-4[8:1],8/2,
3/5h[2:1],2,1-5[8:1],1/7,
6/4h[2:1],7,8-4[8:1],8/1,
3/5h[2:1],2,{8}1,7/8,6,5,
4/6-4[8:1],6/4qq2[4:1],,,{4}2,3,
{8}5/3-5[8:1],3/5v7[4:1],,,{4}7,6,
{8}5/7-5[8:1],7/5>2[4:1],,,{4}2,1,
{8}4/2-4[8:1],2/4v7[4:1],,,{4}7,8,
{8}6/8-6[8:1],8/6-2[4:1],,,{4}4,5,
{8}3/1-3[8:1],1/3p7[4:1],,,{4}5,3,
1<5[4:1],5>1[4:1],1V75[4:1],5V31[4:1],
{8}8,7,6,5,{4}4,6b/2b,
{16}4,5,{8}3-1[8:1],{16}4,5,{8}3,7-4[8:1],8-3[8:1],7,8,
5,6,7/3,2>5[8:1],,2/1,8,7,
{16}5,4,{8}6-8[8:1],{16}5,4,{8}6,2-5[8:1],1-6[8:1],2,1,
4,3/5,6/2,7-3[8:1],,7/8,1,2,
{16}3,4,{8}2,{16}6,5,{8}7,3>8[8:1],7<4[8:1],3,7,
1-5[8:1],5-1[8:1],1V36[4:1],6,7,8,,5/7,
{16}6,5,{8}7,{16}3,4,{8}2,6<1[8:1],2>5[8:1],6,2,
7-3[8:1],3-7[8:1],7,2h[4:1],,8h[8:3],{16}1,2,3,4,
{8}5,{16}5-8[8:1],6,{8}4,5-2[8:1],,5/6,,8,
6/1,{16}4-1[8:1],3,{8}5,4-7[8:1],,4/3,,1,
3/8,{16}5-8[8:1],6,{8}4,5-2[8:1],,5/6,,8,
1-5[8:1],1,6-8[8:1],6,4-2[8:1],4,1,8,
1/6,{16}5v8[8:1],3,{8}4,5v2[8:1],,5/6,,1,
3/8,{16}4v1[8:1],6,{8}5,4v7[8:1],,4/3,,8,
1/6,{16}5,3,{8}4,2h[8:3],3,4,5,6,
7,7-3[8:1],3,7,,1,1,1,
{4}2/8h[2:1],3,4-8[8:1],4/6,
7/1h[2:1],6,5-1[8:1],5/3,
2/8h[2:1],3,4-8[8:1],4/5,
7/1h[2:1],6,{8}5,3/4,2,1,
{4}7/1h[4:1],6,5-1[8:1],5/7,
2/8h[4:1],3,4-8[8:1],4/2,
7/1h[4:1],6,5-1[8:1],5/6,
2/8h[2:1],3,{8}4,6/5,7,8,
{16}2>5[8:1],,,8,{4}2,{16}7<4[8:1],,,1,{4}7,
{16}2-5[8:1],,,8,{4}2,{16}7-4[8:1],,,1,{4}7,
{16}3v8[8:1],,,4,{4}3,{16}6v1[8:1],,,5,{4}6,
{16}3>8[8:1],,,4,{4}3,{16}6<1[8:1],,,5,{4}6,
{16}2-6[8:1],,,8,{4}2,{16}7-3[8:1],,,1,{4}7,
{16}2>6[8:1],,,8,{4}2,{16}7<3[8:1],,,1,{4}7,
1<5[4:1],5>1[4:1],1V75[4:1],5V31[4:1],
{8}8,7,6,5,4,6/3,7b,2b,
{16}5,3,{8}6-8[8:1],{16}5,3,{8}6,2-5[8:1],1-6[8:1],2,1,
4,3,2/6,7<4[8:1],,7/8,1,2,
{16}4,6,{8}3-1[8:1],{16}4,6,{8}3,7-4[8:1],8-3[8:1],7,8,
6,7/4,3/8,2-6[8:1],,2/1,8,7,
{16}6,4,{8}7,{16}3,5,{8}2,6<1[8:1],2>5[8:1],6,2,
8-4[8:1],4-8[8:1],8<3[4:1],3,2,1,,4/2,
{16}3,5,{8}2,{16}6,4,{8}7,3>8[8:1],7<4[8:1],3,7,
2-6[8:1],6-2[8:1],2,5h[4:1],,3h[8:3],{16}6,7,8,1,
{1}2<4[4:3],
{16}2h[16:3],,,3h[16:3],,,{8}4h[8:1],5,6,7,8,
1h[1:1],,,,,,,8,
7h[1:1],2,2,2,2,2,2,3,
{4}4qq8[4:3],8,7,6,
5pp1[4:3],1,2,3,
4h[4:3],{8}8,8,7,7,6,6,
4/5,6,4/5,3,5/6,7,3/4,2,
6b,{16}3,4,{8}3,2/1,3,{16}6,5,{8}6,8/7,
6,{16}5,3,{8}5,2/1,3,{16}4,6,{8}4,8/7,
6,{16}3,5,{8}4,2/1,3,{16}6,4,{8}5,8/7,
{16}6,2,5,3,{8}4,2/1,{16}8,3,7,4,6,5,6,4,
{8}7,{16}2,1,{8}2,3/4,2,{16}7,8,{8}7,5/6,
4,{16}8,2,{8}8,3/4,5,{16}1,7,{8}1,5/6,
7,{16}2,8,{8}1,3/4,2,{16}7,1,{8}8,5/6,
4h[8:1],3h[8:1],2h[8:1],1h[8:1],{16}2,1,3,8,4,7,{8}5,
4/6-4[8:1],6/4qq2[4:1],,,{4}3,3,
{8}5/3-5[8:1],3/5v7[4:1],,,{4}6,6,
{8}5/7-5[8:1],7/5>2[4:1],,,{4}1,1,
{8}4/2-4[8:1],2/4v7[4:1],,,{4}8,{8}8,7,
{16}6,5,6,5,{8}6,1/8,{16}3,4,3,4,{8}3,1/8,
{16}6,5,7,4,{8}6,1/8,{16}3,4,2,5,{8}3,8/1,
1<5[4:1],1,5>1[4:1],5,1V75[4:1],1,5V31[4:1],5,
8,7,6,5,{2}4h[8:5],
{8},1h[8:13],{16},,,,,,,,,8h[16:15],,,,,,,,,,,,,,,,,,,{1}1pp5[8:9]/8qq4[8:9],
{8},,,,,6b/3b,{16},,,,5,
3,{8}6-8[8:1],{16}5,3,{8}6,2-5[8:1],1-6[8:1],2,1,
3,2/5,6/1,7-3[8:1],,7/8,1,2,
{16}3,1,{8}4,{16}6,8,{8}5,3>8[8:1],7<4[8:1],3,7,
1-5[8:1],5-1[8:1],1>7[4:1],6,7,8,,5/8,
{16}7,5,{8}8,{16}2,4,{8}1,6<1[8:1],2>5[8:1],6,2,
7-3[8:1],3-7[8:1],7,4h[4:1],,8,3,2,
5b/1-5[8:1],{16}6,6,{8}1,7,4b/8-4[8:1],{16}3,3,{8}8,2,
5b/1q5[8:1],{16}7,7,{8}1,8,4b/8p4[8:1],{16}2,2,{8}8,1,
5/8b-4[8:1],{16}6,6,{8}8,7,4/1b-5[8:1],{16}3,3,{8}1,2,
8-3[8:1],7-4[8:1],8,7,,3,5,7,
1-6[8:1],2-5[8:1],1,2,,6,8,2,
4-7[8:1],3-8[8:1],4,3,6h[8:3],{16}1,2,{8}3,4,
5-2[8:1],6-1[8:1],5,6,,2h[8:43],,,{1}8bqq3[4:15],
,,,,1b,
E
