&title=Particle Arts
&artist=Virtual Self
&des=Killer°
&first=-0.15
&des_5=Killer°
&lv_5=13+
&inote_5=(162){4},,{2}3h[1:1],
,5h[1:1],
,1q3-5-7-1[2:3],
,,,6h[1:1],
,4h[1:1],
,8p6-4-2-8[2:3],
{4},,,,,4h[8:1],
{2}3p4<6[8:5],
{4},8h[8:1],{2}7p8>2[8:5],
{8},4h[8:1],,5,{2}5q5V71V35[4:5],
{8},,,,,,,,,,7,
8,{2}5/1z5[0.3704##0.5544],
(163){4},{8}2,1,(165){2}4/8s4[0.3636##0.5444],
(166){8},5h[8:1],,6,(168){2}6qq5v2qq1v6[0.3571##1.959],
,(169),
{8},,4,3,(170)5/2,{16}3,4,{8}3,5/2,
{16}3,4,{8}3,5/2,6,(171)7/4,{16}6,5,{8}6,7/4,
{16}6,5,{8}6,7/4,7/4,(172)3/8bV26-4[2:1],3h[8:1],,3,
{4}3h[8:1],3h[8:1],(173){16}2,4,2,4,{8}2,{16}6,4,
6,4,{8}6,5,5,(175)4/7,{16}6,5,{8}6,4/7,
{16}6,5,{8}6,4/7,3,2/5,{16}3,4,{8}3,2/5,
{16}3,4,{8}3,{4}5h[8:1]/2h[8:1],{8}7/4,{16}6,5,{8}6,7/4,
{16}6,5,{8}6,{16}7h[4:1],,,8x-5[16:5]*z4[16:5],,,,,,,,,,,{8}6bxh/2bh,
{4}6bxh/2bh,(174.85)7/3h[2:1],8,
{8}1qq5[2:1],,,3h,3h,,,1,
{4}1V36[4:1],6V41[4:1],{8}E8/B8/B7,,,8,
{4}8V63[4:1],3V58[4:1],{8}E2/B1/B2,,,2h[8:3],
{16},,,,E8,E7,E6,E5,{4}1/E4,1/5pp1[2:1],
{8}2h,2h,3h,3h,{4}4h,{8}4V62[4:1],8h[8:3],
{16},,,,,,,,7V53[16:3],,,7/1h[16:3],,,,,1V35[16:3],
,,1/4h[16:3],,,,,6xp4[4:1],,,6x/5xh[16:3],,,,,,,{8}Ch[8:3],
,,{4}7x,7,
{8}7/5,5,7/4,4,{4}7/3,7/E4/B3,
{8}7/4,4,7/3,3,{4}7/2,7/E2/B1,
{8}7/3,3,7/2,2,{4}7/1V35[4:1],7,
7,{16}2/E8,E7,E6,E5,{4}2/E4,2/4,
{8}2/5,5,2/6,6,{4}2/7,{8}2,8h[8:3],
{4}2,2,{16}2/6,,,4h[16:3],{4}2,
{16}2/5,,,6h[16:3],{4}2,{8}E3/B2/B3,B7/B6/E7,{16}4w8b[8:1],5,4,5,
{4}Cf,6xh[8:1]/2xh[8:1],(175){8}5/1,2,{4}3V15b[4:1],
{8}3b/5-2[8:1],6,7,7,{4}8-4[8:1],{8}8-3b[8:1],3-7[8:1],
8b,4,{4}4-6[8:1],4/2-4[8:1],{8}8/2v8b[8:1],8-6[8:1],
{4}2b,{8}5-3[8:1],5,{4}5/7-5[8:1],7-3b[8:1],
7b,{16}1,5,1,5,{4}2-4[8:1],{8}5/2-6b[8:1],6V84[16:3],
2b,5,{4}5-2[8:1],5/7,{8}6V85b[16:3],{32}3,4,{16}5-1[8:1],
{4}6b,{8}4,4,8x/3x-5[8:1],{16}2,1x,{8}3-7b[8:1],7xV51[32:5],
{16}3b,,,8x,,,{8}2x,{16}8x-6[8:1],,,2x,{8}8-4b[8:1],1x,
{4}8b,3xh[8:1]/7xh[8:1],{8}4/8,7,{4}6V84b[4:1],
{8}6b/4-7[8:1],3,2,2,{4}1-5[8:1],{8}1-6b[8:1],6-2[8:1],
1b,5,{4}5-3[8:1],5/7-5[8:1],{8}1/7v1b[8:1],1-3[8:1],
{4}7b,{8}4-6[8:1],4,{4}4/2-4[8:1],2-6b[8:1],
2b,{16}8,4,8,4,{4}7-5[8:1],{8}4/7-3b[8:1],3V15[16:3],
7b,4,{4}4-7[8:1],4/2,{8}3V14b[16:3],{32}6,5,{16}4-8[8:1],
{4}3b,{8}5,5,1x/6x-4[8:1],{16}7,8x,{8}6-2b[8:1],2xV48[32:5],
{16}6b,,,1x,,,{8}1x-5[16:13],,3,{16}6h,2h,8h,4h,
{4}1bx-5b[8:1],1xh,{8}8/2-5[8:1],1,{4}2/8-4[8:1],
8bV63[16:3],8,2/4x-8[8:1],{8}4/1V35[32:5],1,
{4}7/1b-5[8:1],1/8-4[16:33],{8}7x,{16}6,5,6,5,{8}6,
{16}7,5,{8}7,{4}3xh[8:1],{16}2,1,2,1,{8}2,{16}3,8,
3,8-4b[8:1],{8}3,{4}8xh,1v6[8:1],1/5-2[8:1],
5/3V16[4:1],3x/4xh[8:1],5V74[16:3],5x/2,
3-1[8:1],5x/3x-7[4:7],{8}B5/B4/E5,,,B1/E2/B2,
,E6/B6/B5,1,1,{16}1,5,2,6,{4}3-7b[8:1],
{2}3bxh,{8}1/7-4[8:1],8,{128}1-5[8:1],E7,{16},,,{64},,,{4}1bV36[16:3],
E2,7/5x-1[8:1],{128}8V64[32:5],B5,,,,,,,,,,,,,,,{8}8,
{4}2/8b-4[8:1],{128}1-5[16:33],B8,{16},,,{64},,,{8}2x,{16}3,4,3,4,{8}3,
{16}2,4,{8}2,{4}6xh[8:1],{16}7,8,7,8,{8}7,{16}6,1,
6,1-5b[8:1],{8}6,{4}1xh,8v3[8:1],8/4-7[8:1],
4/6V83[4:1],6x/5xh[8:1],4V25[16:3],4x/7,
6-8[8:1],4x/6x-2[0.3429##2.3966],(175.25){2}Ch[4:3],
{16},,,,,,,8,5,7,4,6-2[8:1]*-2[8:1],,,,6bxh,
,,,4,,4,,4bV28[0.3427##0.2571],(175),{32},,,,7,E3,E2,E1,,,,,{16}7V53[0.3429##0.2571],
,,,{32}1,E7,E6,E5,,,,,{16}1V75[16:3],{32},,,,,,3,E1,E8,E7,,,,,{16}3V17[16:3],
{32},,,,,,5,E3,E2,E1,,,,,{16}5V31[16:3],{32},,,,,,7,E5,E4,E3,,,,,{16}7V53[16:3],
{32},,,,,,1,E7,E6,E5,,,,,{16}1V75[16:3],{32},,,,,,3,E1,E8,E7,,,,,{16}3V17[16:3],
{32},,,,,,5,E3,E2,E1,,,,,{16}5V31[16:3],{32},,,,,,1,E5,E4,E3,{16}8,,7V53[16:3],
{32},,,,,,3,E7,E6,E5,{16}2,,1V75[16:3],{32},,,,,,5,E1,E8,E7,{16}4,,3V17[16:3],
{32},,,,,,7,E3,E2,E1,{16}6,,5V31[16:3],{32},,,,,,1,E5,E4,E3,{16}8,,7V53[16:3],
{32},,,,,,3,E7,E6,E5,{16}2,,1V75[16:3],{32},,,,,,5,E1,E8,E7,{16}4,,3V17[16:3],
{32},,,,,,7,E3,E2,E1,{16}6,,5bV31[16:3],,,,{128}8,,,,,E5,,,7,E4,,,,E3,,,{16}6,,8xV64[16:3],
,,,{128}3,,,,,E8,,,2,E7,,,,E6,,,{16}1,,3xV17[16:3],,,,{128}6,,,,,E3,,,5,E2,,,,E1,,,{16}4,,6xV42[16:3],
,,,{128}1,,,,,E6,,,8,E5,,,,E4,,,{16}7,,1xV75[16:3],,,,{128}4,,,,,E1,,,3,E8,,,,E7,,,{16}2,,4xV28[16:3],
,,,{128}7,,,,,E4,,,6,E3,,,,E2,,,{16}5,,7xV53[16:3],,,,{128}2,,,,,E7,,,1,E6,,,,E5,,,{16}8,,2xV86[16:3],
,,,{128}5,,,,,E2,,,4,E1,,,,E8,,,{16}3,,5x-1[0.3536##3.5714],(168){2},
{16},,,,,,,5x-1[4:5]*-1[4:5],{1},{4},,,{16},,,Ch[1:1],
,,,,,,,,,,,,,,,8x<7<6>5>4>3>2<1[1:2],
,,,E2,,,,E3,
,,,E4,,,,E5,,,,E6,,,,E7,
,,,E8,,,,8x<7<6>5>4>3>2<1[1:2],,,,E2,,,,E3,
,,,E4,,,,E5,,,,E6,,,,E7,
,,,E8,,,,8x<7<6>5>4>3>2<1[1:2],,,,E2,,,,E3,
,,,E4,,,,E5,,,,E6,,,,E7,
,,,E8,,,,8x<7<6>5>4>3>2<1[1:2],,,,E2,,,,E3,
,,,E4,,,,E5,,,,E6,,,,E7,
,,,E8,,,,8x<7<6>5>4>3>2<1[1:2],,,,,,,,E3,
,,,,,,,E5,,,,,,,,E7,
,,,,,,,8x<7<6>5>4>3>2<1[1:2],,,,,,,,E3,
,,,,,,,E5,,,,,,,,E7,
,,,,,,,8x<7<6>5>4>3>2<1[1:2],,,,,,,,E4,
,,,,,,,E5,,,,,,,,E6,
,,,,,,,,{2}8xw4[16:19],
E
