&title=Imprinting
&artist=削除
&first=-0.01
&des=kusazyo姬
&lv_5=14
&inote_5=(175)
{1},
{32}4bpp1[8:4]/5bqq8[8:4],,,,,,,,,,,,,,
,,,,,,,,,,,,,,,8b/1b,7b/2b,6b/3b,
{4}5bp8[16:5]/4bq1[16:5],,,
{8}5,4,3,6,5,4,
{16}7,5,7,4,
{8}6,5,4,3,4,5,
{16}6,4,6,4,
{4}3b-6[8:1]/5b-2[8:1],,7b-3[8:1]/1b-5[8:1],,
4b-8[8:1],4b/7b-3[8:1],7b/1b-4[8:1]*-6[8:1],1b,
{8}1,8,1,2,1,7,
{16}3,4,3,5,
{8}4,5,3,6,4,5,
{16}4,7,4,7,
{4}6b-2[8:1]/5b-1[8:1],,
8b-3[8:1]/4b-7[8:1],,
6pp1[8:5]/2h[8:6],,,,
{8}8-4[8:1],8,2,2,
1-5[8:1],1,7,7,
2,7h[8:1],8,1/6,
5,2h[8:1],1,3/8,
7-3[8:1],7,2,2,
1-5[8:1],1,7,7,
8,3h[8:1],
{16}1,8,7,6,8p4[8:1],1,2,3,8,,1,,2/5,,
{16}3,7,3,6,3,5,3,,4h[8:1]/1,,
1,4,2,5,3h[8:1],,
7,3,6,3,5,3,
{8}
4,62,3-8[8:1]/7-4[8:1],,7b/3b,,
2-5[8:1]/6-1[8:1],,6b/2b,,
6-4[32:3]/2-8[32:3],,6bqq8[16:9]/2bqq4[16:9],,2/6,,,,,,
{8}8,1,8,7,8,1,
{16}7,8,7,1,
{8}6,5,6,4,6,5,
{16}3,4,2,4,
{4}1bq5[8:1]/3bq7[8:1],,
1b-5[32:3]/8b-6[32:3],,
1bp5[8:1]/8b^5[8:1],1b^4[8:1]/8bV24[8:1],1bw5[8:1]/8b,1b,
{8}3,4,3,2,3,4,
{16}2,3,2,4,
{8}1,8,1,7,1,8,
{16}7,5,6,5,
{8}8b<5[8:1],4,3,2,
1b>4[8:1],5,6,7,
3-5[32:4]/8,,4V25[16:4]/3,,5V74[32:9],,,,
{8}1-6[8:1],1,5,5,4-8[8:1],4,2,2,
{16}6,5,7,,4,5,3,,7,5,6,,2,4,3,,
{8}5q1[32:5]/1,5,2,2,
3p7[32:5],3,8,8,
6/5,4,5/3,2,1b/8b,7b/2b,3b/6b,,4b/3b,
{16}6,4,6,3,6,4,6,,5h[8:1]/8,,
8,5,7,4,6h[8:1],,
8,6,1,6,8,6,
{8}1,62,3-8[8:1]/7-4[8:1],,7b/3b,,
2-5[8:1]/6-1[8:1],,6b/2b,,
3-5[32:3]/6-4[32:3],,3V15[16:9]/6V84[16:9],,36,,,,,,
{8}3-8[32:5],3,6,6,4-8[32:5],4,1,1,
1>4[32:5],8,7,6,5<8[32:5],1,2,3,
4qq4[32:10],4,1,8,7h[32:8],,
5-1[8:1],7-4[8:1],5,7,2,1,
8bw4[32:4]/4,,8b,,
{8}6-1[32:5],2,3,4,5-1[32:5],8,7,6,
5pp8[8:3],1,1,1,1,{24}2,3,4,5pp4[32:11]/7b,,,,,,
{8}2h[8:3]/5b,,,,,
8h[32:1]/7h[32:1],
5h[32:1]/6h[32:1],
4h[32:1]/3h[32:1],
2h[8:3]/5bpp5[4:1],,,,,
4h[32:1]/3h[32:1],
5h[32:1]/6h[32:1],
8h[32:1]/7h[32:1],
{4}2>1[8:7],4,1,7,5,3bpp6[32:12],6,8b,
{8}4/6-2[8:1],4,4,4,1-6[8:1]/4,4,4,4,4/6-1[8:1],4,4,4,4/2-6[8:1],4,4,4,
8q6[4:1],,6q4[4:1],,4q2[4:1],,2q8[4:1],,8<4[4:1],,4z8[32:10],,3,,,,
{8}5/3-7[8:1],5,5,5,7-3[8:1]/5,5,5,5,5/3-8[8:1],5,5,5,5/8-3[8:1],5,5,5,
1p3[4:1],,3p5[4:1],,5p7[4:1],,7p1[4:1],,1V35[4:1],,5s1[32:10],,8,,,,
{16}4/7h[4:1],,4,,4,,4,,4/8h[4:1],,4,,4,,4/8,7,6h[4:1]/2,,2,,2,,2,,2/4h[4:1],,2,,2,,24,5,
{4}2-6[32:4]/6,2-4[32:4]/8-4[32:4],8/2<3[16:5],2,
8-4[8:1],,8-4[8:1]/6-1[8:1],,
{16}6,4,6,3,6,2,6,1,{32}7,8,1,2,3,4,5,6,7,8,1,2,3,4,5,6,
{4}7b-4[64:7]/3b-8[64:7],7b^2[64:7]/3b^6[64:7],7b/3b,48,
{16}1/5,,5,,5,,3,4,2,,2,,2,,1,4,
{16}2,3,4,5,
{24}1/6,2,3,4,5,6,7<1[32:7],,,,,,7/8,,,,,,
{16}4,3,2,1,5,4,3,2,
6,5,4,3,7,6,5,4,
{16}8,3,8,4,8,5,8,6,
{24}7,6,5,4,3,2,1b/8b,,,,,,
{16}4/7,,7,,7,,7,1,6,,6,,6,,5,2,
{8}4-8[8:1],3-1[32:3],4,3,
7^4[8:1],8,7,1,
{16}2,1,3,8,2,1,4,8,2,5,3,7,8,6,1,5,
{8}2^5[8:1],1,2,6,
{8}7h[32:1],6h[32:1],5h[32:1]/3h[32:1],4h[32:1]/2h[32:1],
{16}8/4,,4,,4,,6,5,7,,7,,7,,8,5,
{16}7,6,5,4,
{24}8/3,7,6,5,4,3,2>8[32:7],,,,,,2/1,,,,,,
{16}5,6,7,8,4,5,6,7,
3,4,5,6,2,3,4,5,
{16}1,6,1,5,1,4,1,3,
{24}2,3,4,5,6,7,8b/1b,,,,,,
{8}6b,7b/4b,7b/4b,
{16}3,4,{8}2b/5b,2b/5b,2b/5b,
{16}7,8,{8}6b/1b,3,7b/4b,1,
5bw1[32:4]/2b,8b,5b,,
{16}3,1,4,8,5,6,8,5,1,4,
3,1,4,8,5,6,
{32}1b,8,7,6,5,4,3,2,1,8,7,6,5,4,3,2,1,8,7,6,5,4,3,2,{4}1b/8,
{16}
2,4,2,6,8,,
7,5,7V52[32:4],2-4[32:2],4,,
{8}
7b/2,,
{8}1b,8,1,2,1,8,
{16}2b,1,2,8,
{8}3b,4,3,5,3,4,
{16}6b,5,7,5,
{8}8bp4[8:1],8,3,3,2bq6[8:1],2,8,8,
{16}
5b,6,7,8,
2b,3,4,5,
6b,7,8,1,
5b,4,3,2,
{8}6b,5,6,7,6,5,
{16}7b,6,7,5,
{8}8b,1,8,2,8,1,
{16}2b,4,3,4,
{8}1bp4[32:4],8q5[32:4],1,8,
2b^5[32:3],1,2,8,
{16}3,1,3,8,3,7,3,6,
3,4,5,6,{16}7q4[32:5],8p3[32:3],1/5,2/6,
{8}
7b,,,,
