&title=カラフル。(AnimeVer.)
&artist=沢井美空
&first=0
&des=-HTT- vs. -MERCYME-
&lv_5=13
&inote_1=
&inote_5=(153){64},{8},,{16}4,5,4,5,4,5,4,5,4h[4:1],,{8},7h[4:1],5<3[2:1],,,4,,7h[4:1],,,,2-6[8:1]*-4[8:1]/5,3,2,,{16}5bh[4:1],,{8},2h[4:1],4>6[2:1],,,5,,2h[4:1],,,,36,{16}4,5,4,,{8}3/6,2h[8:1]/7h[4:1],,1b-5-1[16:6],,,6,6,7h[16:6],,1b,1bpp2[4:1]*qq8[4:1],,,,,,
{8}3/5,2-5[8:1],4,2,6-4[8:1],3,6,1-5[8:1],3,1,7^4[8:1],5,7,2h[8:1],4h[8:1],,7^4[8:1]/4^1[8:1],,4pp7[2:1]/7,,3h[8:1],,1h[8:1],,2,2,6-8-4[4:1],3-1[153#8:1],,,,,7-5-3[4:1],,7/3-1-5[16:5],,1h[8:1],,3-5-7[4:1],,3/7-1-5[16:5],,1h[153#8:1],,7,6h[8:1],,4,4,6,1<3[16:5]*q2[16:5],7,,,,,17,{16}4,5,3,,{8}2h[4:1],,8b,,,6/4,7-4[8:1],5,7,3-5[8:1],6,3,8-4[8:1],6,8,2^5[8:1],4,2,7h[8:1],5h[8:1],,2^5[8:1]/5^8[8:1],,5qq2[2:1]/2,,6h[8:1],,8h[8:1],,7b,7b,3-1-5[4:1]*-1-5[4:1],6-8[153#8:1],,,,,2-4-6[4:1],,2/6-8-4b[16:5],,8h[8:1],,6-4-2[4:1],,6/2-8-4b[16:5],,8h[8:1],,2,3h[4:1],,5,7h[4:1],,4,3h[153#8:1],4h[8:1],5h[8:1],6h[8:1],7>5[4:1],,,,7,7<3<7[16:24],,2,,1h[4:1],,,2,2,,3,2qq7[2:1],,,,,,6,6,5<3[1:1],4h[4:1],,,,1p8b[16:6],1,,,,,,2,2>6>2[16:24],,7,,8h[4:1],,,7,7,,6,7pp6[2:1],,,,,,,,4>6[1:1],5h[4:1],,,,
8,8pp8qq8b[16:14],,,,,,,,,,,2pp6[1:1],,5,5,,6h[8:1],,7-1[8:1],,7qq4[16:7]*<2[16:7],,,,,,,7qq3[1:1],,4,4,,3h[8:1],,2h[8:1],,,1w5[8:1],,1,,73,,2v5[8:1]/6v1[8:1],,26,,1-6[8:1]/5-2[8:1],,15,,1q5[8:1]/5q1[8:1],,1<6[8:1]/5>2[8:1],,1v4[8:1]/5v8[8:1],,1<6[8:1]/5>2[8:1],,1b/5b,,24,24,24,35,35,35,{16}4,6,4,6,5,7,5,7<2b[4:1],,,,,1b,,,,1bh[4:1],,{8},5h[4:1],,3h[4:1],,7h[4:1],,1>5[4:1],,5<1[4:1],,1>5[4:1],,5<1[4:1],,1-3-5[4:1],,5-7-1[4:1],,1,,5>1[4:1],,1<5[4:1]*<5[4:1],,5>1[4:1],,1<5b[4:1],,5-3-1-7-5[2:1]*-3-1[4:1],,1-7-5[4:1],,5-3-1[4:1]*-3-1[4:1],,1-7-5b[4:1],,
5-3-1-7-5[2:1],,1-7-5b[4:1],,5^3^1^7^5-3-1-7-5b[4:3],3h[8:6],,,,,,,,1-5[8:1]*-5[8:1],8-4[8:1],1-3[8:1],8-6b[8:1],1,8,,3,1b>4b[8:1],,7,1b<5[8:1],,,,1>5[4:1],,5<1b[4:1],,1q5[4:1],,5<8[4:1]*<8[4:1],,8p3[4:1],,3^8b[4:1],,8^5[4:1],,5p1b[4:1],,1<6[4:1],,6^3[4:1]*^3[4:1],,
3^8[4:1],,8<2[2:1]*<2[2:1],,5>7[2:1],,2<4b[2:1],,7<1[2:1],,4>6[2:1]*>6[2:1],,1<6[4:1],,6^3b[4:1],,1,,8,,7^4[8:1]/3h[8:1],,7^2[8:1]*^2[8:1]/3,,7v4b[8:1],3,,2>6[4:1],,7<3b[4:1],,1,8h[32:24],,,,,,,,2-5[8:1]/7-4[8:1],,27,,36,,4,5,4,6h[8:1],3,3,5hx[4:1],4hx[4:1],,,,3/6v3[1:1]*q3[1:1],
