&title=我有两颗睾丸
&artist=台灣館長
&first=0
&des_5=HPjun
&lv_5=搞
&des=HPjun
&inote_5=(180)
{8},,,,,,,,,,
{23}8<1[4:1],1,2,,,,,,,,,,,,,,,,,,,,,,,,,,,
{64}6,,,,4,,,,,5,,,,,,,,,,,,,,,,3,,,,,,3,,,,,,,3,,,,,,,,,1-5b[2048#1:1],,,,,,,,,,,8>1-5>4-8b[2048#1:3],,,,,,,,,,3,,,,,,,,,,2,,,,,,,,,,,,,,,,,,,,,,,,,,,,,,,,,,,,,,,,,2,,,,,,7,,,,,2-6b[8:1],,,,,8-4b[8:1],,,,,2,,,,,,,8,,,,,,,,,,,,,,,,,,,,,,,,,,,,,,,,,,,,,,,,,,,,,,,,,,,,,,,,,,,,,,,,,,,,,,,,,,4,,,,,,6,,,,,,4,,,,,6,,,,,,,3-1v8-6[300#2:1],,,,,,,,5,,,,,,,,,,,,,,,,,,,,,,,,,,,,,,,,,,,7>2-6-3[420#4:3],,,,,,7,,,,,,4,,,,,,,,4,,,,,,,,,,,4xpp5[4:1]/6xqq5[4:1],,,,,,,,,,,,,,,,,,,,,,,,,,,,,,,,,,,,,3,,,,,,,3,,,,,,,5,,,,,,5,,,,,5xqq8[4:1]/3xpp8[4:1],,,,,,,,,,,,,,,,,,,,,,,,,,,,,,,,,,,,,,,,,,,,,,,,,,,,,,,,,,,,,,,,,,,
{32}1b/8b,27,36,45,,,,,,,,,,1b/8b,27,36,45,,,,,2,,,,2,,,,6-8v1-3[2048#1:3],,,,,4,,,,,,,,,,,,7,,,,,2v5[8:1]/8v5[8:1],,,,28,,,,,,,,,,,,,,,,,,4,,,,,4,,,,,3<6-3[4:1],,,,3,,,,E8f,,,,B8f,,,,B1f,,,,E2f,,,,,,,,,,,,,,,,,,,,,,,,,,,,,,
(360)2b-5[8:1],,,,,,,,2b/8-4[8:1],,,,,,,,3-8[8:1]/8b,,,,,,,,3b/7,,,,,,,,,,,,,,
{16}2b,3,4,5,6,7,8,B7h[1:0],B6,B5,B4,B3,,,,1,8,1,8,1,,,2,7,2,7,2,7,,,,,,,,,,5,,,,5,,,,5h[1:2],,,,,,,,,
{16}3x,2x,1x,8x,7x,6x,,7x,8x,1x,2x,3x,,2x,1x,8x,7x,6x,,7x,8x,1x,2x,3x,,,,,,,,,,,,,,
{24}B1,B2,B3,B4,B5,B6,B7,B8,B1,,,,,6,,,,,6,,,,5,,,,,,,,,4,,,,,,,,6,,,,,4,,,,5,,,,,3-6-2<7[420#4:3],,,,,5,,,,5,,,,,,,5,,,,,,,
(180)5xqq4[4:1]/3xpp4[4:1],,,,,,,,,,,,,,,,,,,,,,,,,,,,,,,,,,,,,,,,,,,,,,,,,,,,,,,,,,,,,,,,,,,,,,,,,4,,,,,,5,,,5,,,
{24}5,3,5,,
{16}3,,2<7pp2[2:1],
{32},2,,,6,,,,5,,,,,5,,,,,,,,,,,,,,,,,,,,,,,,,,,,,,,,,,,,,,,,,,,,,,,,,3,,,3,,,5,,,,4,,,,6,,,,,,,,,,,,,,,,,2,,,,2,,,5,,,3,,,,6,,,4,,,,,,,,,,,
{24}E2,D3,E4,C,E2,D3,E4,C,E2,,,,,,,,,E8,D7,E6,C,E8,D7,E6,C,E8,,,,,,,,,,
{64},4?pp1[11#128:1]/6?qq1[11#128:1],,,,,,,,,,,,,,,,,,,,,,,,,,,,,,,,,,,,,,,,,,,,,,,,,,,,,,,,,,,,,,,,,,,,,,,,,,,,,,,,,,,,,,,,,,,,,,,,,,,,,,,,,,,,,,,,,,,,,,,,,,,,,,,,,,,,,,,,,,,,,,,,,,,,,,,,,,,,,,,,,,,,,,,,,,,,,,,,,,,,,,,,,,,,,,,,,,,,,,,,,,,,,,,,,,,,,,,,,,,,,,,,,,,,,,,,,,,,,,,,,,,,,,,,,,,,,,,,,,,,,,A5f/D5/D6,A4/E5/E6/A6,D7/E7/B6/B5f/B4/E4/D4,A7/B7/Cf/B3/A3,D3/E3/B2/B1f/B8/E8/D8,A8/E1/E2/A2,A1f/D1/D2,
E
