&title=お呪い
&artist=なきそ
&first=0
&des=黙って私に従って
&lv_6=13+
&inote_6=(115)
{1},
{16}
2qq7b[8:3]/E5h[4:3],,,,,,,,,,,,E1f,,,,
2/4-2[8:1],,,,5,,,,4-6[8:1]/6,,,,3,,3,,
2/4-2[8:1],,,,5,,,,4-6[8:1]/6,,4,,3,,3,,
2<4[4:1],,,,4,,4,,3>5[4:1],,,,5,,5,,
4h[4:1],,,,5w1[4:1],,,,,,,,,,,,
3-6[8:1]/7,,7,,7,,7,,7/5-1[8:1],,7,,7,,7,,
78,,67,,57,,47,,3-8[8:1]/7,,7,,7,,7,,
37,,37,,26,26,,5xh[16:3]/1xh[16:3],,,,,1-3[230#8:1]/5-7[230#8:1],,1x/5x,,
(230)
8bx-3[8:1]/2bx,,,,4,,4-1[8:1],,,,5,,,,7-3[8:1],,
,,5,,5-1[8:1],,,,6,,,,7,,,,
8-3[8:1]/3,,,,4,,4-1[8:1],,,,6,,,,5qq3[4:1]*pp7[4:1],,
,,,,,,,,1-5[8:1],,,,51,,,,
6-2[8:1],,,,76,,,,8-4[8:1],,,,81,,,,
2-6[8:1],,,,32,,,,4-8[8:1],,,,54,,,,
6v8-2[2:1],,,,5,,,,4,,,,3,,,,
3v1-7[2:1],,,,4,,,,5h[2:1],,,,,,,,
1x-6[8:1],,,,5,,5-8[8:1],,,,4,,,,2-6[8:1],,
,,4,,4-8[8:1],,,,3,,,,2,,,,
1-6[8:1]/6,,,,5,,5-8[8:1],,,,3,,,,4pp6[4:1]*qq2[4:1],,
,,,,,,,,8-4[8:1],,,,48,,,,
1^4[16:3],,,,4,,,,8^5[16:3],,,,5,,,,
2z6b[2:1]*v7[2:1],,,,,,,,,,,,,,,,
(115)
3xh[4:1]/4xh[4:1],,,,,,34,34,,,3h[8:1]/4h[16:3],,,,3,,
2xh[4:1]/4xh[4:1],,,,,,24,24,,,2h[8:1]/4h[16:3],,,,2,,
1xh[4:1]/4xh[4:1],,,,,,14,14,,,1h[8:1]/4h[16:3],,,,1,,
8xh[4:1]/4xh[4:1],,,,,,84,84,,,8h[8:1]/4h[16:3],,,,8,,
{12}1xh[4:1]/B4,B5,B4,B5,B4,B5,8xh[4:1]/B4,B5,B4,B5,B4,B5,
2xh[4:1]/B4,B5,B4,B5,B4,B5,7xh[4:1]/B4,B5,B4,B5,B4,B5,
2xh[6:1]/B4,B5,B4,B5/1xh[6:1],B4,B5,8xh[6:1]/B4,B5,B4,B5/7xh[6:1],B4,B5,
6xh[6:1]/B4,B5,B4,B5/7xh[6:1],B4,B5,8xh[6:1]/B4,B5,B4,B5/1xb,,,
{16}
3/4-2[8:1]*-6[8:1],,,,4,,,,6/5-7[8:1]*-3[8:1],,,,5,,,,
2-4[8:1]/4-6[8:1],,,,24,,,,7-5[8:1]/5-3[8:1],,,,57,,,,
2-4[8:1],,1,,5,,6,,7-5[8:1],,8,,4,,3,,
2h[8:1]/4h[8:1],,,,2h[8:1]/4h[8:1],,,,3,4,5,6,3,,,,
2/4-2[8:1],,,,5,,,,4-6-4[4:1]/6,,6,,,,,,
8,,17,,2,,13,,4-1[8:1]/8-5[8:1],,57,,,,,,
2-4[8:1]/6-4[8:1],,8/C,,,,,,7-5[8:1]/3-5[8:1],,1/C,,,,,,
E5h[16:7],,,,,,,C,,6,5,4,3-7b[230#8:1]/6-2b[230#8:1],,36,,
(230)
1bx-6[8:1]/8bx,,,,1,,5-8[8:1],,,,45,,,,2-6[8:1],,
,,2,,4-8[8:1],,,,34,,,,2,,,,
1-6[8:1]/6,,,,1,,5-8[8:1],,,,35,,,,4x,,
4x-1[8:1]*-7[8:1],,,,4,,,,8-4[8:1],,,,48,,,,
2-6[8:1],,,,1-5[8:1],,,,8-4[8:1],,,,7-3[8:1],,,,
6^1[8:1],,,,56,,,,7-4[8:1]/3-8[8:1],,,,37,,,,
1-4[8:1],,,,51,,,,7-3[8:1]*-4[8:1],,,,7,,,,
5-1[8:1],,,,56,,,,8w4[8:1],,,,8,,,,
8x-3[8:1]/1x,,,,8,,4-1[8:1],,,,54,,,,7-3[8:1],,
,,7,,5-1[8:1],,,,65,,,,7,,,,
8-3[8:1]/3,,,,8,,4-1[8:1],,,,64,,,,5x,,
5x-8[8:1]*-2[8:1],,,,5,,,,1-5[8:1],,,,51,,,,
3-6[8:1],,,,3/7-2[8:1],,,,4-1[8:1],,,,45,,,,
2h[4:3]/6h[4:3],,,,,,,,,,,,,,,,
(115)
1-7-2-6-3-5-1b[2:3]*<1[2:3],,,,,,,,,,,,,,,,
,,,,,,,,,,,,,,,,
4h[2:1],,,,E4,,E5,,5h[4:1],,,,1,,26,,
3h[8:5]/7h[8:5],,,,,,,,,,,,7-5[230#8:1]/3-1[230#8:1],,37,,
(230)
2-4[8:1],,,,5,,5-8[8:1],,,,4,,,,3-5[8:1],,
,,6,,6-1[8:1],,,,56,,,,48,,,,
7-5[8:1],,,,4,,4-1[8:1],,,,5,,5pp7[16:3]*qq3[16:3],,,,
,,,,,,,,2-5[8:1]/6-1[8:1],,,,26,,,,
7-4[8:1],,,,78,,,,2-5[8:1],,,,12,,,,
6h[4:1],,,,8h[4:1],,,,1h[4:1],,,,3,,,,
5-1[8:1],,,,57,,,,4-8[8:1],,,,24,,,,
1,,,,28,,,,{32}3x,4x,5x,6x,7x,8x,1x,2x,{16}3x/7x,,,,
2b/8b^3[8:1],,,,8/4,,4-1[8:1]*-8[8:1],,,,4,,,,7-3[8:1],,
,,37,,5w1[8:1],,,,5,,,,37,,,,
2/8^3[8:1],,,,8/4,,4-1[8:1]*-7[8:1],,,,4,,,,8x,,
8^3[8:1]*^5[8:1],,,,8,,,,6-1[8:1]/2-5[8:1],,,,62,,,,
8V64[4:1],,,,4V28[4:1],,,,8,,,,4,,,,
1b-4[8:1],,,,4,,,,8b-5[8:1],,,,5,,,,
1V35[4:1],,,,5V71[4:1],,,,1,,,,5,,,,
7b-4[8:1]/8b-4[8:1],,,,78,,,,2b-5[8:1]/1b-5[8:1],,,,21,,,,
7-3[8:1],,,,1^4[8:1]/7,,,,1/8^5[8:1],,,,18,,,,
1w5b[115#12:1]/8,,,,,,,,A1,,,,,,,,
(115)
3xh[4:1]/7xh[4:1],,,,,,37,37,,,3h[8:1]/7h[16:3],,,,3,,
4xh[4:1]/8xh[4:1],,,,,,48,48,,,4h[8:1]/8h[16:3],,,,4,,
5xh[4:1]/1xh[4:1],,,,,,51,51,,,5h[8:1]/1h[16:3],,,,5,,
6xh[4:1]/2xh[4:1],,,,,,62,62,,,6-3[12:1]/2-7b[12:1],,26,,E2/C/E6,,
