&title=フィードバックを鳴らして
&artist=ハンブレッダーズ
&first=-0.02
&des=HY
&lv_5=13
&des_5=HY
&inote_5=
(292){4},,,,,,,,,,,,{2}6h[2:7],
4,
4,4,
4,4,
4,4,
3h[2:3],5,
5,5,
{8}5x,4,5x,4,5x,4,5x,4,
{1}5xq3[8:3]*p7[8:3],
{8}4b,4,5,5,{4}3,{8}6,4,
{4}5,{8}3,5,{16}4,3x,{8}2x,,,5,
5,4,4,{4}6,{8}3,5,
{4}4,{8}6,4,{16}5,6x,{8}7x,,,3,
3,6,6,{4}4,{8}7,5,
{4}6,{8}4,5,{16}3,2x,{8}1x,,,5,
5,3,3,{4}6,{8}3,5,
{16}2b,1x,,,,,,,7b,8x,,,,,,,{2}2qq5[4:3],
3,
{4}4,4,{2}7/6,
7pp4[4:3],6,
{4}5,5,{2}2/3,
1<5[4:3],3,
{4}4,4,{2}3/2,
8>4[4:3],6,
{4}5,5,{2}6/7,
{4}5q1[2:1],4,{2}3,
{4}2,1,{2}8/1,
{4}1q5[2:1],8,{2}7,
{4}6,5,{2}4/5,
{4}3/5q1[2:1],4,{2}3,
{4}2,1,{2}8/1,
{4}4,3/5,{2}5/3h[2:1],
{4}4,4/5,{8}5,4,5,4,
{2}5bxpp7[8:3],4,
{4}6/2,{8}5,3,{4}6x,4,
{2}4qq2[8:3],5,
{4}3/7,{8}4,6,{4}3x,5,
{2}4<7[8:3],3,
{4}6/2,{8}5,3,{4}7x,4,
{2}5>2[8:3],6,
{4}3/7,{8}4,6,{4}2x,5,
{2}1bpp3[8:3],7,
{4}2/6,{8}5,3,{4}6x,1,
{2}8qq6[8:3],2,
{4}7/2,{8}6,3,{4}5x,1,
{2}8>3[8:3],6,
{4}2/7,{8}1,6,{4}3x,8,
{2}1<6[8:3],3,
{4}7/2,{8}8,3,{4}7x,1,
{1}5b/1qq4[4:5],
{4},6,{2}6x,
{1}5/8pp5[4:5],
{4},4,4x,{8}2,4,
{1}3qq5[4:5],
{4},7,{2}7x,
{1}3/8p6[2:1],
{4}2x,4,{8}3,5,4,6,
{2}3h[2:1],4,
5h[2:1],6,
4h[2:1],3,
6h[2:1],{4}5,6,
{8}4/7h[4:1],,,1/7h[4:1],,,{4}7/3,
{8}6b/2h[4:1],,,8/2h[4:1],,,{4}2/4,
{8}2b-8[8:1],,,6b-1[8:1],,,{4}3b-8[8:1],
{2}5b,C,
{4}8b/1b,{8}2,8,{4}1,7/2,
6/3,{8}5,4,{4}5,6/3,
7/2,{8}6,3,{4}3,1/8,
8v2[4:1],2-4[4:1],,,1h[2:1],
6,8h[2:1],3,
2h[2:1],5,7h[2:1],4,
{8}1-3-5-2[4:3],,,6,,,{4}7,
{2}8h[4:1]/A2f/D3/E3,{8}8,1,7,2,
6bh[2:1],,,4,{4}4,7/2,
5h[4:1],4,3h[4:1],5,
6h[4:1],{8}1,1/6,,,{4}7/2pp3[4:1],
,,6,5/3,
4h[2:1],7,5h[2:1],2,
3h[2:1],8,6,1/7,
{8}1b/E6/B5/A5f,,,7b/E5/B4/A4f,,,{4}3b/E6/E7/A6f,
{1}3bx>1[4:1]*<5[4:1],
{4}1b/8b,{8}7,2,{4}7,2/6,
3/7,{8}4,6,{4}4,2/5,
4/7,{8}6,6,{4}3,7/2,
1q7[4:1],7v5[4:1],,,8h[2:1],
4,1h[2:1],5,
7h[2:1],3,2h[2:1],6,
{8}8-6-4v7[4:3],,,2,,,{4}1,
{2}1h[4:1]/A7f/D7/B7,{8}1,8,2,7,
4bh[2:1],,,6,{4}6,3/6,
{8}5,4h[8:3],,,{4}6h[4:1],4,
{8}2h[4:1],,,6,{4}6/2,1/7pp6[2:1],
,,3,4/6x,
5h[2:1],2,4h[2:1],7,
6h[2:1],1,3,8/4,
{8}8b/A4/B4/D4/E4,,,2b/A5/B5/D6/E6,,,{4}7b/A3/E3/B3/D3,
{2}7bxh[8:1],{8}6,2,{4}8,
1-3b[4:1],8,7-5b[4:1],8,
4-2b[4:1],5,6-8b[4:1],5,
3,5/3,{8}4,5,,4q3[8:3]/5p6[8:3],
,,,,,,,,{1}2/7bv5[4:1],
6/3bv5[4:1],
{2}6b/3h[2:3],5,
5,5,
4,{8}4,5,,,{4}4,
6,{8}5,,,E6/A6,
E
