&title=生命流
&artist=塞壬唱片-MSR/BaoUner
&first=0.051
&des=Dr.HK416/TZ
&lv_5=13+
&des_5=Dr.HK416/TZ
&inote_5=
(60){4},,3-6[4:1],3x,
,8-4[2:1],8V62[4:1],C,
,C,3qq5[2:1]/6pp4[2:1],6x/3x,
,,E7,E3,
E6/B6/B5,B1/E2/B2,Cfh[1:1],E1,
E2,E3/D3,E4/D4,2h[4:1],
7-3[8:1],8-4[8:1],1-5[8:1],2-6[8:1],
,,8h[4:3],C,
{2}4bh[4:1],{8}7h[4:1]/1-4[8:1],2-6[8:1],,,{4}8h[8:1],
{8}2h[4:1]/8-5[8:1],7-3[8:1],,,,,{2}3<6[8:1],
{8}5-1[8:1],4-8[8:1],5,4,
,,{4}7h[4:1]/C,A3,1b-6b[8:1]*-4b[8:1],
{2}1w5[8:1],{16}2-6[8:1],,,2h[16:1],,,,,8-4[8:1],
,,8h[16:1],,,,,7-3[8:1]/1-5[8:1],,,7bh[16:1]/1bh[16:1],,,,,{4}E5/Ch[2:1],
E7,{16}E1,,,4pp3[16:5],,,{8}1b-7b[8:1],
,,,1/5,{4}2/6,7-2-7[4:1]/3-6-3[4:1],
{8},,,,2-4[8:1],1-5[8:1],2,1,
8-4[8:1],7-5[8:1],8,7,8-4-8[8:1],2-6-2[8:1],8,2,
8-4[16:1],8-5[8:1]*-3[8:1],8x,8w4b[8:3],,8,B7/B1,E6/E3,
,E1,E3,E5,6,7,8,2-6[16:1]/1-5[16:1],
{2}6-3[8:1]/5-8[8:1],{8}6>3[8:5],,,2<7[8:1],
,,,,6V84[4:1],7/5,6/4V62[4:1],3,
2V84[4:1],1,{4}8h[4:1],{8},,3pp8[4:1],3bh[8:3],
,,,,{4}Ch[4:3],{8}4,3,
,3,{4}2,{8}6v4[16:1]/2v4[16:1],6v8[16:1]/2v8[16:1],,,,7v5[16:1]/3v5[16:1],
{4}7v8[16:1]/3v2[16:1],{8},,6v4[16:1]/2v8[16:1],6v1[16:1]/2v5[16:1],
,,,6v4[16:1]/2v4[16:1],{2}7v1[16:1]/4v1[16:1],
{8}7v4[16:1]/3v4[16:1],5v8[16:1]/1v8[16:1],,,,5v8[16:1]*v2[16:1],{4}6v1[16:1]/4v1[16:1],
{8},,6v1[16:1]/2v5[16:1],3v4[16:1]/7v8[16:1],,,,,1>4[8:1],
1,1/6-2[8:1],6,6V48[16:3],6,6/1V73[16:3],1,
1-5[8:1],1,1/6V84[4:1],6,6/4V62[4:1],4,3,2,
,E6,B7/A7,E1/D1/C,{4}1-6-3-8-5-2[8:5],4b-1-6-3b[8:3],
{8},,,,E8/E2,8/2-5[8:1],E2,2/7p3[8:1],
E8,7/1-5[8:1],E1,1/7,{2}8h[4:3],
4h[4:1],{8}4/1-6[8:1],2,1/4-8[8:1],5,
4/1-6[8:1],2,1/4-8[4:3],5,{2}4,
4h[4:1],{8}4/8-5<6[8:1],7,8/4-1>2[8:1],3,
4/8-4>3[8:1],7,8/1-5<6[8:1],2,1/7-3>2[2:1],8,,,{2}B7f,
{16}6/2h[4:1],7,8,1,,,{8}8-4[8:1],
7/1,8,,5/3,6/2,7/1pp8[8:3],,6-4[8:1],
{16},,,,,,,,3v2[16:1],7v6[16:1],3v4[16:1],7v8[16:1],,,,,,,4x-7[16:1],
6x-1[16:1],8x-3[16:1],2x-5[16:1]/5x-2[16:1],,,,,,,6v7[16:1],2v3[16:1],6v5[16:1],2v1[16:1],
,,,,,,5-2[16:1],4-7[16:1],6-1[16:1],3-8[16:1]*-8[16:1],,,,,,,1v4[16:1],
5v8[16:1],1v2[16:1],5v6[16:1],,,,,,,8<6[16:1],1>3[16:1],8-4[16:1],1-5[16:1],,,,,,,7v5[16:1],
3v1[16:1],5<8[16:1],1>4[16:1],,,,,,,7-4[16:1],2-5[16:1],
7-2[16:1],8x-3[16:1]/1x-6[16:1],,,,,,,8v5[16:1],4v1[16:1],8v6[16:1],4v2[16:1],,,,,5x-7[16:1],
5x-3[16:1],5x-8[16:1],5x-2[16:1],{4}5x-1[1:1],{2}5bx,
E
