&title=挖掘机技术哪家强?
&artist=伊丽莎白鼠
&first=-1.07
&lv_5=13+
&des=buff
&lv_6=13+
&des_6=buff
&inote_6=
(126){4},{8},,,,,,6h[8:1],
{16}1,7,{8}2h[8:1],{16}7,8,{8}5h[8:1],{16}2,6,1x-3[8:1],7,{8}8x-6[8:1],
1x-4[8:1],8x-5[8:1],1x-5[8:1],8x-4[8:1],1x,8x,{4}1bx,
{16}4,5,4,5,,,6,5,7,5,{8}8,{16}2,1,3,1,
{8}4x-1[8:1],{16}4x,6,{8}4x-7[8:1],5,4x-8[8:1],3,{4}4bx,
{16}1,8,{8}1h[8:1],2h[4:1],{16}3,3,{8}3h[8:1],4h[8:1],5h[8:1],6h[8:1],
7h[8:1],8h[8:1],1h[8:1],2h[8:1],3h[8:1],4h[8:1],{4}5b,
{8}6V82[4:1],8V24[4:1],2V46[4:1],4V68[4:1],6V82[4:1],8V24[4:1],2V46[4:1],4V68[4:1],
6V82[4:1],8V24[4:1],2V46[4:1],4V68[4:1],6V82[4:1],8,2,4,
{4}6bxh[1:2],{8}2,2,2,2,2,2,
2,2,2,2,2,2,{4}2,
2bxh[1:2],{8}6,{16}6,6,,6,{8}6,{16}6,6,,6,
{8}6,{16}6,6,,6,{8}6,{16}6,6,,6,{8}6,6,
{16}6xh[16:3],,,2x,{8}5h[8:1],1,4h[8:1],8,3h[8:1],7,
{16}2xh[16:3],,,6x,{8}1h[8:1],5,8h[8:1],4,7h[8:1],3,
{16}8x,1,2,3,4,5,6,7,{32}8x,1,2,3,4,5,6,7,8-4[1.9048##0.2381],1-5[1.8452##0.2381],,,,,,,{4}8xh[8:5]/1xh[8:5],
,,8b/1b,
{48}2x/7xh[8:1],3x,4x,5xh[16:1],,,,,,,,,7x/2xh[8:1],6x,5x,4xh[16:1],,,,,,,,,2/7h[8:1],3,4,5h[16:1],,,,,,,,,7/2h[8:1],6,5,4h[16:1],,,,,,,,,2x/7x,
3x,4x,5xh[16:1],,,{8}7x,{48}7x/2x,6x,5x,4xh[16:1],,,{8}2x,{48}2/7,3,4,5h[16:1],,,{8}7,{48}7/2,6,5,4h[16:1],,,{8}2,
{48}2/7h[8:1],3,4,5h[16:1],,,,,,,,,7/2h[8:1],6,5,4h[16:1],,,,,,,,,2/7h[8:1],3,4,5h[16:1],,,,,,,,,7/2h[8:1],6,5,4h[16:1],,,,,,,,,{8}8/1,
{32}1/8,2/7,{16}3/6,{8}4>1[8:1]/5<8[8:1],3/6,{4}5/4,C,
{48}2x/1xh[8:1],3x,4x,5xh[16:1],,,,,,,,,7x/8xh[8:1],6x,5x,4xh[16:1],,,,,,,,,2/1h[8:1],3,4,5h[16:1],,,,,,,,,7/8h[8:1],6,5,4h[16:1],,,,,,,,,2x/1x,
3x,4x,5xh[16:1],,,{8}1x,{48}7x/8x,6x,5x,4xh[16:1],,,{8}8x,{48}2/1,3,4,5h[16:1],,,{8}1,{48}7/8,6,5,4h[16:1],,,{8}8,
{48}2/1h[4:1],3,4,5h[16:3],,,,,,,,,,4/8,3/7,2h[16:3]/6h[16:3],,,,,,,,,,3/7,4/8,5h[16:3]/1h[16:3],,,,,,,,,,4/8,3/7,2/6,,,,,,,,,{8}6/2,
3/7,2-7[8:1]/6-3[8:1],3V58[4:1]/7V14[4:1],{2}2/6,
{8}Ch[8:1],,,3bxh[8:5],,,,,{4}8b,
{8}8b-4-2-6[8:3],{16}8b,8b,{8}8xh,8xh,8bx-4>3[8:1],8bx,
8bx-5<6[8:1],8bx,8bx-3>2[8:1],8bx,8bx-4<5[8:1],8bx,8bx,8bx,
8xh,{16}8xh,8xh,{8}8bx-3<4b[8:1],{16}8bx,8bx,{8}8bx-4<5b[8:1],8bx,8bx-5<6b[8:1],8bx,
8bx-4>3b[8:1],{16}8bx,8bx,{8}8bx-3>2b[8:1],8bx,8bxw4b[8:1],8bx,{4}8bx,
{16}1,1,{8}1,{16}5,5,{8}5,4,4,7h[8:1],3h[8:1],
7-2[8:1],3-6[8:1],7,3,{4}8h[4:1],{8}2,2,
{4}6x<7-2>3-6[8:13],{8}6x,{16}6x,6x,{8}6x,E7,C,E3,
{16}8,1,8,1,{8}8,7x,7x,3x,{4}3bx,
{16}4,4,{8}4,{16}8,8,{8}8,1,1,1-4[8:1],1-5[8:1],
1-6[8:1],1-7[8:1],1-3[8:1],1-4[8:1],1-5[8:1],1-6[8:1],,,1q6[4:1],
1,6q3[4:1],6,3q8[4:1],3,8q5[4:1],8,
5q2[4:1],5,2q7[4:1],2,7q4[4:1],7,{16},,,,6,
6,{8}6,{16}2,2,{8}2,1h[8:1],7h[8:1],5h[8:1],3h[8:1],
2,{16}2,2,{8}7<4[8:1],1>4[8:1],7,1,{4}7-3[8:1],
7/1v6[8:1]*v4[8:1],1,{16}2<7[16:1],7-3[16:1],{8}3<6[16:1],,,B7/E7/B6/C,
B5/E5/B4,C/B3/E3/B2,B4/E5/B5,B8/C/B1,D8/A8/E1/D1/A1/D2,{4}D8/A8/D1/E1/A1/D2,
{48}2<7[4:7],3,4,5h[16:1],,,{8}B5,{48}7,6,5,4h[16:1],,,{8}B4,{48}2,3,4,5h[16:1],,,{8}B5,{48}7,6,5,4h[16:1],,,{8}B4,
{48}2,3,4,5h[16:1],,,{8}B5,{48}7,6,5,4h[16:1],,,{8}B4,{48}2,3,4,5h[16:1],,,{8}B5,{4}2b,
{48}3<6[4:7],2,1,8h[16:1],,,{8}B8,{48}6,7,8,1h[16:1],,,{8}B1,{48}3,2,1,8h[16:1],,,{8}B8,{48}6,7,8,1h[16:1],,,{8}B1,
{48}3,2,1,8h[16:1],,,{8}B8,{48}6,7,8,1h[16:1],,,{8}B1,{48}3,2,1,8h[16:1],,,{8}B8,{4}3b,
{64}1b,E2,B2,B3,{16}E4,{64},,,,8b,B8,C,B4,{8}A4,{64}7b,E7,B6,B5,{16}E5,,,{8}8h[8:1]/1h[8:1],{64},E8/E2,B2/B7,B6/B3,{16}E4/E6,{64},,,,,,,,8b,
E8,B7,B6,{16}E6,{64},,,,1b,B1,C,B5,{8}A5,{64}2b,E3,B3,B4,{16}E5,,,{8}1h[8:1]/8h[8:1],{64},E2/E8,B7/B2,B3/B6,{16}E6/E4,,,{8}8,
8,8,8,{16}8,8,8,8,{8}8,8,
5/6,7/8,1-5<6b[16:5]/2v8<7b[16:5],3/4,{2}2bx/1bx,
{48}2/6h[8:1],3,4,5h[16:1],,,{8}B6/B5,{48}7/3h[8:1],6,5,4h[16:1],,,{8}B4/B3,{48}2/6h[8:1],3,4,5h[16:1],,,{8}B6/B5,{48}7/3h[8:1],6,5,4h[16:1],,,{8}B4/B3,
5/6,7/8,1-5<6b[16:5]/2v8<7b[16:5],3/4,{2}2bx/1bx,
{8}1V74[8:1]/8V64[8:1],2/3,,,3-6[8:1]/2bq6[8:1],2/3b,{4}2b/3b,
{8}2/3,1/8,6>5-1b[16:5]/7>8v2b[16:5],5/4,{2}6bx/7bx,
{48}2/6h[8:1],3,4,5h[16:1],,,{8}B6/B5,{48}7/3h[8:1],6,5,4h[16:1],,,{8}B4/B3,{48}2/6h[8:1],3,4,5h[16:1],,,{8}B6/B5,{48}7/3h[8:1],6,5,4h[16:1],,,{8}B4/B3,
{48}2/6,3,4,5h[16:1],,,{8}6/B5,{48}7/3,6,5,4h[16:1],,,{8}3/B4,{48}2/6,3,4,5h[16:1],,,{8}6/B5,{48}7/3,6,5,4h[16:1],,,{8}3/B4,
6bxh[8:1]/7bxh[8:1],{48}E7,B6,B5,E5,,,{8}6bx>5-1b[16:5]/7bx>8v2b[16:5],{48}E7,B6,B5,E5,,,{2}6bx/7bx,
{8}2/3,1/8,6>5-1b[16:5]/7>8v2b[16:5],5/4,{2}6bx/7bx,
{8}4bxh[8:1],{48}E4,B3,B2,E2,,,{8}5h[8:1],{48}E6,B6,B7,E8,,,{8}3-6[8:1]/2bq6[8:1],3b/2,{4}3b/2b,
{8}3-6[8:1],6-3[8:1],,,7-2[8:1],2-7[8:1],3b,3b-6[8:1],
2-7[8:1],3,2,{16}3b,3b,{8}3b,{48}8,7,6,5,,,{8}3b,{48}8,7,6,5,,,{8}2/3,
1/8,6>5-1b[16:5]/7>8v2b[16:5],5/4,{2}6bx/7bx,
{48}2/6h[8:1],3,4,5h[16:1],,,{8}B6/B5,{48}7/3h[8:1],6,5,4h[16:1],,,{8}B4/B3,{48}2/6h[8:1],3,4,5h[16:1],,,{8}B6/B5,{48}7/3h[8:1],6,5,4h[16:1],,,{8}B4/B3,
2/7,{16}2/7,2/7,{8}2/7,{16}2/7,2/7,{48}2/7h[8:1],3,4,5h[16:1],,,{8}B6/B5,{48}7/2h[8:1],6,5,4h[16:1],,,{8}B4/B3,
{48}2/7,3,4,7/5h[16:1],,,{8}7/B6/B5,{48}7/2,6,5,2/4h[16:1],,,{8}2/B4/B3,{48}2/7h[8:1],3,4,5h[16:1],,,{8}B6/B5,{48}7/2h[8:1],6,5,4h[16:1],,,{8}B4/B3,
{48}2/7>8v2[8:5],3/6>5-1[48:29],4,5h[16:1],{4},,,{16},,{24},{1}3x>6<7<6<7<6<7<6<7<6<7<6<7<6<7<6<7<6<7<6<7<6<7<6<7<6<7<6<7<6<7<6<7<6<7<6<7<6<7<6<7<6<7<6<7<6<7<6<7<6<7<5[64:113],
{4},,,1b-5b[64:1],
{1}1b,
E
