&title=正義
&artist=ずっと真夜中でいいのに。
&first=0.015
&des_5=心白-HW
&lv_5=13
&des=心白-HW
&inote_5=(122){4},{8},,,,,,,,,,,,,,3,
3,4/2,1,2,3/5<8[8:1],,4,
3,4,7/5,8,7,6/4,5p7[16:3],3,
{4}1p3[16:3],8-6[8:1],4-6[8:1],7h[4:1],
{8}5-8[8:1],4,5/3,2,1bx,7bx-3[8:1],5,3,
1,2,3/5,6,7,6/4>1[8:1],,5,
6,5,2/4,1,2,3/5,4q2[16:3],6,
{4}8q6[16:3],1>3[8:1],5>3[8:1],2h[4:1],
{8}4>1[8:1],5,4/6-2[16:1],7,{2}8h[2:1]`Cf,
{8}2bpp7[8:5],,,6,{2}6-4[8:1],
{8}5pp1[8:5],,,2,{4}2-4[8:1],2,
{8}8qq5[8:5],,,4,{2}4-1[8:1],
{8}6pp1[8:5],,,2,{4}2-4[8:1],2,
{8}4bV63V51[8:5],,,8x,{2}8x-6[8:1],
{16}5xV36V48[8:5],,,1x,,,{8}1x,{4}1x-5[8:1],1,
{16}7<4[6:1],,,3,,,{8}2,1>4[6:1],5,6,7,
8<5[8:1],{16}7,1,{8}8>3[8:1],{16}1,4,{4}8-4[8:1],8w4[2:3],
{1},{4},,,{16}1b,
1bh[8:1],,8,
{8}2-6[8:1],{16}1,8,{8}2,8,{16}7V53[8:1],1,{8}8,7,1,
{16}2,4,3,4,{8}1>4[8:1],2,1/8<5[8:1],7,8/1,2,
3V15[4:1],{16}4,3,,6,,7h[16:7],,,{8}6,4,2,
1/7,5/6,2/8,4/3,{4}1/B6f/A6/E7/E6,{16}8,8h[8:1],,2,
{8}7p3[8:1],{16}8,1,{8}7,1,{16}2>5[8:1],8,{8}1,2,7,
6<3[4:1],5,3>6[4:1],4,{4}C,{8}5,{16}4,4h[8:1],
,6,5,7,{8}1-5[8:1],2,{4}1/3,{16}2,4,3,4,
2,5,3,6,1-5[8:1],8,2,7,{4}1,{8}8h[8:1],{16}2,4h[8:1],
,1,7,5h[8:1],,8,8,4,{8}6h[8:1],{16}2,4h[8:1],,1,1,7,
3,4,3,6,5,6,2,2,8-4[8:1],1,7,2,{4}8,
{16}5/6<1[8:1],,,5,,,{8}4,{16}4/3>8[8:1],,,4,,,{8}5,
{16}6<1[8:1],5,6,4,,,{8}3,{4}2-5[8:1],2/1,
{8}8<5[8:1],{16}3,8,,2,{8}2,1>4[8:1],{16}6,1,,7,{8}7,
{16}6,5,6,2q7[8:1],,,{8}8,{4}8w4[8:1],8,
{16}1/2>5[8:1],,,1,,,{8}8,{16}8/7<4[8:1],,,8,,,{8}1,
{16}2>5[8:1],1,2,8,,,{8}7,{4}7-4[8:1],7/8,
{8}1-5[8:1],{16}6,1,,7,{8}7,8-4[8:1],{16}3,8,,2,{8}2,
{16}1,5,3,7p1[8:1],,,{8}1,{4}8w4[8:1],8b`Cf,
{16}2,2h[8:1],,4,{8}4h[8:1],{16}3,4,1-5[8:1],8,2,7,{8}1,6,
{16}7,7h[8:1],,5,{8}5h[8:1],{16}6,5,8-4[8:1],1,7,2,{8}8,3,
{16}2,2h[8:1],,4,{8}4h[8:1],{16}3,4,1,8,2,7,{8}1-5[8:1],6,
{4}1b/7b-3[8:1],7b/8b,{8}6b/2b>5[8:1],{16}1v6[8:1],8,{8}2b,1,
{4}8b-4[8:1],8/2-6[8:1],{8}8/2>5[8:1],{16}7,7,{8}2,8,
{16}7,7h[8:1],,5,{8}5h[8:1],{16}6,5,8-4[8:1],1,7,2,{8}8,3,
{16}6,5,6,3,4,3,7,7,2,1,2,7,8,7,1,1,
7,5,7,2,4,2,8,8,1-5[8:1],7,2,8,{4}1b,
{8}7-4[8:1],8,4-8[8:1],3,2-5[8:1],1,5-1[8:1],6,
7V58[4:1],6,8-4[8:1],1,2-5[8:1],1,{16}6,,,7,
{8}5h[8:1],{16}6,4h[8:1],,5,3,4,{8}2h[8:1],{16}4,3h[8:1],,5,4,6,
{8}5-1[8:1],6,7-4[8:1],8,3w7[8:1],2,,,2-5[8:1],
1,2/5-1[8:1],6,5/7-4[8:1],8,7/4-8[8:1],3,
4/2V41[4:1],3,2/1-5-2[4:1],8,7-3[8:1],8,7,1,
2h[8:1],{16}5,3h[8:1],,6,4,7,{8}5h[8:1],{16}7,4h[8:1],,6,3,5,
{8}2,{16}3/4,3/4,,6/5,{8}6/5,8/1-5[8:1],2/7,{4}1/8,
{48}B7,C,{24}B3,{4},,,{16},,{24},{16}Ch[4:3],
{4},,,{16},,{32}6,5,
{2}4pp8<5-1[8:13],2,
3,4,
{16}5qq1>4-8[8:13],{32},,,,,,,,,,,,8x,7x,{2}6x,
{4}6,5,6,7,
1b>7[4:3],B7/B6/E7,5<3[4:3],E8/B7/B8,
1>7[8:5],B6/E6/B5,5,E1/B1/B8,
8p6[8:3],B3/B4/E4,1>7[8:3],B5/E6/B6,
8w4[16:5],{16},,,,,,,,8b,8bh[8:1],,1,
{8}7-4[8:1],{16}8,1,{8}7,1,{16}2V46[8:1],8,{8}1,7/2,8,
{16}7,5,6,5,{8}8<5[8:1],7,8/1>4[8:1],2,1/8,7,
6V84[4:1],{16}5,6,,3,,2-6[16:3],,,{8}4,5,7,
8/1,4/3,1/8,5/6,{4}E1f/E8/B1/B8/E2,{16}1,1h[8:1],,8,
{8}2-5-1[16:3],{16}1,8,{8}2,8,{16}7<4-8[16:3],2,{8}8,7/1,2,
3>6[4:1],4,6<3[4:1],5,{4}C,{8}4,{16}5,5h[8:1],
,3,4,2,{8}8-4[8:1]*-6[8:1],7/1,{4}8,{16}7,5,6,5,
7,4,6,3,7-3[8:1]*-5[8:1],2,8,1,{4}7,{8}1h[8:1],{16}7,5h[8:1],
,8,2,4h[8:1],,1,1,5,{8}3h[8:1],{16}7,5h[8:1],,8,8,2,
6,5,7,3,4,2,8,8,1-5[8:1],7,2,8,{4}1b,
{16}5/6<1[8:1],,,5,,,{8}4,{16}4/3>8[8:1],,,4,,,{8}5,
{16}6<1[8:1],5,6,4,,,{8}3,{4}2-6[8:1]*-5[8:1],2,
{8}8<5[8:1],{16}3,8,,2,{8}2,1>4[8:1],{16}6,1,,7,{8}7,
{16}6,5,6,2q7[8:1],,,{8}8,{4}8w4[8:1],8,
{16}1/2>5[8:1],,,1,,,{8}8,{16}8/7<4[8:1],,,8,,,{8}1,
{16}2>5[8:1],1,2,8,,,{8}7,{4}7-4[8:1]/8-4[8:1],7/8,
{8}1-5[8:1],{16}6,1,,7,{8}7,8-4[8:1],{16}3,8,,2,{8}2,
{16}1,5,3,8,4,6,2,7,{32}1w5[12:1],2,3,4,5,6,7,8,{4}1b,
E
