&title=SEV-26
&artist=Laur
&first=0.01
&des=Caerulea
&lv_6=14+
&des_6=Caerulea
&inote_6=
(180){4},{12},,,,,,4/5,3/6,2/7,
{1}8/1v4[2:1]*-5[2:1],
{12}A5,A6,A7,A8,,,A4,A3,A2,A1,,,E1,
E8,E7,E6,,,E1,E2,E3,E4,,,6,
5,7,4,5,3,5,4,6,3,4,2,
{1}5-1[2:1]*v8[2:1],
{12}A8,A7,A6,A5,,,A1,A2,A3,A4,,,E5,
E6,E7,E8,,,E5,E4,E3,E2,,,7<3[4:1],
7,{6}7,{12},,2>6[4:1],2,{3}2,
{4}8bh[1:1],5,3,1,
1bh[1:1],4,6,8,
{12}7,8,7,2,3,2,8,1,8,3,4,3,
1,2,1,4,5,4,6,5,6,7q1[4:3]/4q5b[4:3],,,,,,,,,,,,,,,{1}Cfh[1:2],
{4},,,,,,E4,
E3,
,E6,{2}E5,
{4}E8,E7,,E2,
E1,2h[4:1],4h[4:1],3h[4:1],
5h[4:1],4h[4:1],C,7h[4:1],
5h[4:1],6h[4:1],4h[4:1],1b,
2h[4:1],{8}4,{16}3,4,{8}2,1/5,{16}7,4,6,3,
{4}5bh[4:1],1h[4:1],{8}7-3b[8:1],3,{4}7,
2h[4:1]/5-1[8:1],{16}5,,,3h[8:1],,,{8}3h[8:1]/1h[8:1],,4/8,
5,{16}5,6,,6,{8}8,7/8,6/1,{16}7b,6,5,4,
{8}E3fh[4:1],{16},,,,6,5,{8}7,8/4,{16}2,5,3,6,
{4}4bh[4:1],8h[4:1],{8}2-6b[8:1],6,{4}2,
7/4-8[8:1],{8}4,7<4[8:1],,7,{16}E1,E2,E3,E4,
7xh[8:1]/E5,,,4xh[8:1]/E7,,,{8}C,8,{16}1x,8x,{32}A2/D3,E3,B3,B4,A7/D7,E7,B6,B5,
{2}Cfh[4:1],{8}6-1[8:1],5/7,6,2,
{16}2-5[8:1],1,3,8,{8}2,8-4[8:1],4-8b[8:1],8,{16},,,,2,
7,2,7,1,8,1,8,{8}2/4,C,{4}5/7,
{16}7,2,7,2,8,1,8,1,{8}7/5,5/4-8[8:1],{4}4/2,
{8}1b,{16}1,7,{8}1,{16}1,6,{8}1,2/5,{16}4,3,5,2,
{8}6h[8:1],{16}4,4h[8:1],,8,{8}8h[8:1],3V51[4:1],2/6,{16},,,,8,
7,6,5,{8}4b/1,{16}1,5,,5,{8}3,{16}3,6,5,6,
{8}5,{16}7,7/4,,2,{8}2/5,{16}4w8[8:1],5,4,5,{4}4b,
Cf/6V48-2[8:3],{8}6,2,{4}3V16[4:1],{8}3,7,
{4}8xh[4:1],{16}5-8[8:1],6,{8}4,5,3,4,8,
7-5[8:1],4,7/3,2,7-1[8:1],2,7/3,4,
2-4[8:1],5,2/6,7,2-8[8:1],7,2/6,5,
4x,4h[4:1],{16}A8,A1,A2,A3,{8}5x,5h[4:1],{16}A1,A2,A3,A4,
{8}5x-1[8:1],3,{4}5-3[8:1]*<8[8:1],5,{8}1-4[8:1],8,
{4}1,{8}5/7h[4:1],5,{32}5,D8,A8,D1,{8}5/A1,{4}3-6[8:1],
3,{8}1/3h[4:1],1,{32}1,D4,A4,D5,{8}1/A5,{4}7-2[8:1],
7,{8}3>7[16:3],8<4[16:3],{4}5>2[8:1],1xw5b[8:1],
{32}A1,B1,C,B5,{8}A5,{4}7-4[8:1]/3-8[8:1],Cf,{16}2,6,2,6,
{8}1-4[8:1],8,7,6,5-8[8:1],4,3,2,
1/6,{16}8,7,{8}1,7,5/6,{16}4,5,{8}3,6,
6<2[16:3],1>5[16:3],{4}4<7[8:1],8xw4b[8:1],{32}A8,B8,C,B4,{8}A4,
{4}2-5[8:1]/6-1[8:1],Cf,{16}7,3,7,3,{8}8-5[8:1],1,
2,3,4-1[8:1],5,6,7,8/3,{16}1,2,
{8}8,2,4/3,{16}5,4,{8}6,{16}3,4,{8}2,1/5,
{32}7/8bh[4:1],6,5,4,,,,,,,,,7/8bh[4:1],6,5,4,,,,,,,,,8b/7>4V61[1:1],6,5,4,{1},{16},,{32}A7,
D7,A6,D6,A5,D5,A4,D4,A3,D3,A2,D2,A1,D1,A8,D8,{2}A7/3-1-4-8-5-7b[1:1],
{1},{32}2/1bh[4:1],
3,4,5,,,,,,,,,2/1bh[4:1],3,4,5,,,,,,,,,1b/2<5V31-7[1:1],3,4,5,{1},{16},,{32}A2,
D3,A3,D4,A4,D5,A5,D6,A6,D7,A7,D8,A8,D1,A1,D2,{2}A2/6-8-5V71V35[1:1]*V42b[8:3],
{16},,,,,,,,,,,,,,,,2/Cf,
3,4,5,8,7,6,5,1,8,7,6,5,4,3,2,
8,7,1,2,7,6,2,3,6,5,3,4,8,7,6,5,
3,2,1,8,5,6,7,8,4,5,6,7,8,1,2,3,
6,5,4,8,7,6,2,1,8,4,3,2,8,7,6,5,
2,3,4,5,E1,E2,E3,E4,7,6,5,4,E1,E8,E7,E6,
1x,5x,2x,6x,3,7,4,8,3,7,2,6,1,5,8,4,
{4}Cf,{16}2,3,4,5,1,8,7,6,1,2,3,4,
{24}7b,6,5,1b,2,3,8b,7,6,2b,3,4,1b,8,7,6,5,4,8b/3,1,2,3,4,5,
{1}6/C,
{16}8b,5,6,5,7b,4,5,4,6b,3b,4b,2b,5b,3b,4b,2b,
5b,6,7,8,1,2,1,2,3,4,5,6,5,6,7,8,
1,2,8,3,7,4,6,5,7,8,6,1,5,2,4,3,
5h[8:1],,,6h[8:1]/4h[8:1],,,{8}3/7,{16}8,2,8,2,7,1,7,1,
8,7,6,5,4,3,2,1,8/4,5,6,7,8,1,2,3,
{8}4/6,{16}8,7/1,,1,{8}8/2,{16}4,5,4,5,3,6,3,6,
2,7,2,6,2,5,2,4,{24}1b,8,7,6,5,4,D2,A1,D1,A8,D8,A7,
{1}D7/Cf,
2x>5[2:1],
7x<4[2:1],
3x>6[2:1],
{6}5xh[3:2],E6,E5,E4,E3,E2,
(190)7xh[3:2],E8,E7,E6,E5,E4,
(200)1xh[3:2],E2,E1,E8,E7,E6,
(210)3xh[3:2],E4,E3,E2,E1,E8,
(220){1}E7h[1:7]/E3h[1:7],
,,,,,,{4},,{12}4,
5,{3}3/6,
{6}1-3[8:1],8,8,7-5[8:1],8,8,
2-4[8:1],1,1,8-6[8:1],1,1,
5-1[8:1],4,4,2-6[8:1],1,8,
2/7,B6/B3,,E7,E3,{12}1/8,1/8,
{3}2/7-5[6:1],{6}4,4>2[6:1],{12},,5,6,
{6}7-5[6:1],7,{12}2,3,{8}4>2-5[4:1],6,7,8,
{3}1-4[4:1],{6}7,8-5[4:1],{12},,4,4,
{1}3q6[2:1],
{8}7,5,7,{16}5,6,{4}4h[8:1],{16}6,5,{8}7h[8:1],
,8/4,{24}8/4-8[8:1],7/3,6/2,5/1,,,,,,,,,{4}B6/B2/A6/A2,
{8}3,5,3,5,2,4,2,{16}4,3,
{4}5h[8:1],{16}3,4,{8}2h[8:1],,1/5,{24}1/5-1[8:1],2/6,3/7,4/8,,,,,,,,,{4}B3/B7/A3/A7,
8<5[8:1],{8}8,3>8[8:1],
,3,{4}4h[2:1],{2}7>3[4:1],
{4}5<8[8:1],{8}5,2>5[8:1],,2,{4}1h[1:1],
{16}3h[8:1],,,3h[8:1],,,{8}3h[8:1],{16},3h[8:1],{48},,,,,,{24}2<5[8:7],3,4,5,,,,,,,,,{4}4h[8:1],
{2}4-2[8:1],
{8}1-5[4:1],4,{4}1,8<4[4:1],{16}4,3,2,1,
{4}8V24V28[8:5],{8}6h[16:1],6h[16:1],{2}6-4[8:1],
{8}6,6,8,8,{4}7<5[8:1],{16}3/7>4[8:7],2,{8}1,
{2}4h[4:1],5-7[8:1],
{8}8-4[4:1],5,{4}8,1>5[4:1],{16}5,6,7,8,
{4}1V75V71[8:5],{8}3h[16:1],3h[16:1],{2}3-5[8:1],
{8}3,3,1,1,{4}2>4[8:1],{16}2/8,7,{8}6,
{24}1bw5[2:3],2/8,3/7,6/4,{1},{4},,,{16},{48},{1}3qq8[2:3]/7qq4[2:3],
{4},,,,1V35[1:1],
A8,A7,A6,
{2}5z1<8[1:1],C,
{8}8z4<5[1:1],,,A7,,,{4}A6,
{1}5V71[2:1],
{4}5<8[2:1],{8}A1,A2,A3,A4,{4}A5h[1:1],
{1}1p4p8[4:3],
{4}3x,2/6,{8}7,4,{4}6>1[2:1],
6/8xh[2:1],,,3<8[2:1],
3/1xh[2:1],,,2z6z2b[2:3]/7s3s7[2:3],
,,,,,,,,1,
1,1,1,
8,{8}8/A2,A3,{4}8/A4,8/C,
7,7,7,7,
2,{8}2/A7,A6,{4}2/A5,2/C,
{8}6,4,7,5,6,4,7,5,
1,3,8,2,1,3,{16}8,7,6,5,
{8}4,4,{16}1,2,3,4,{8}5,5,4/6,4/6,
{16}3,7,3,7,2,8,2,8,{2}1-4[8:1]*-6[8:1],
{16},,,,2/1b,3,{8}4,{16}8/1b,7,{8}6,{16}1/8b,2,{8}3,
{16}7/8b,6,{8}5,{4}2/4,5/7,{8}1bx/7bx,2bx/6bx,
{4}5bx/3bx-8[8:1],3/7-4[8:1],7/1>5[4:1],{16}5b,6b,7b,8b,
{4}1b,8<4[4:1],{16}4x,3x,2x,1x,{4}8bh[4:1],
B5/E5f/B4,{24}5b/1b,2/6,3/7,4/8,,,5b/1b,8/4,7/3,6/2,,,4b/8b,1/5,2/6,3/7,,,4b/8b,
7/3,6/2,5/1,,,7b/3b,4/8,5/1,6/2,,,7b/3b,2/6,1/5,8/4,,,{4}Cf,
{8}2,{16}4,3,{4}5h[8:1],7/4h[8:1],{16}6,5,6,5,
{4}7h[4:1],{8}5,5h[4:1],,3,{4}3h[4:1],
{8}1,1,{16}7/8b,6,{8}5,{16}1/8b,2,{8}3,{16}8/1b,7,{8}6,
{16}2/1b,3,{8}4,{4}7/5,4/2,{8}8bx/2bx,7bx/3bx,
{4}4bx/6bx-1[8:1],6/2-5[8:1],2/8<4[4:1],{16}4b,3b,2b,1b,
{4}8b,{8}5/1>5[4:1],3/7,{16}A4,A5,A6,A7,{4}A8f,
1/8,{16}1,2,3,4,2,3,4,5,3,4,5,6,
4,5,6,7,1,8,7,6,5,4,3,2,1,8,7,6,
5bx,6,4,7,3,8,2,1,3,4,2,5,1,6,8,7,
{24}1,8,1,8,1,8,1,8,1,8,1,8,1,8,1,8,1,8,{4}1b,
2-5[8:1]/6-1[8:1],2/6,{8}8-4[8:1],7,8/2-6[8:1],3,
{24}2/6V41[4:1],7,8,1,{48},,,,,,,,,,,,,,,,{16}8,7,6,5,1/4,2,3,4,
{4}5<8[8:1],{8}5,3V51[4:1],,3/1V35[4:1],7,8,
{2}7-3[8:1],{12}2/5,3,4,2/5,3,4,
{4}2/5,{8}1-5[8:1],2,1/7-3[8:1],6,{24}7/3V58b[4:1],2,1,8,,,,,,,,,{4}1h[16:3],
8-3[8:1],8/2-5[8:1],
{8}2,7-3[8:1],8,7,{4}8h[4:1],{16}4b,1/5,2/6,3/7,
{8}8/4h[4:1],,,6h[4:1]/2h[4:1],{24},,,,,,1-5[8:1],2,3,7,6,5,
,,,,,,{8}7-4[8:1],2,7-1[8:1],3,7,{16}2,3,
{2}4xh[8:3]/8xh[8:3],{16}E4,E5,E6,E7,E8,E1,E2,E3,
{4}Cf,{16}6,5,{8}7,{4}2>5[8:1],{24}2/1-5[8:1],8,7,6,,,,,,,,,{4}Cfh[4:3]/E7fh[4:1]/E3fh[3:1]/B7fh[12:5]/B3fh[2:1]/B6fh[12:7]/B2fh[3:2],
,,,8/1-5b[8:1],
1/7V51[4:1],7/1V74[4:1],
{16}4bxh[8:1],,,2bxh[8:1],,,{8}5bxh[8:1],{16}3bh[8:1],,,6bh[8:1],,,{8}4bh[8:1],
7,7/3,7,7/1,2,2/8,2,2/6,
{16}7,1,{24}7,6,5,{8}4,{24}8,1,2,3/5,6,7,8,1,2,3,4,5,6,7/4,8/3,
{4}1-5[8:1]/2-6[8:1],2b-8-4-6-2[4:5]/1b-3-7-5-1b[4:5],{8},,,,,,,,,,,,7/3,
{16}6,4,{4}5h[8:1],{16}3,4,{8}2h[8:1],{16}1,8,7,6,
{24}1,5,1,5,1,5,1,5,1,5,1,5,1,5,1,5,1,5,{4}1bw5b[8:1],
,,,,,,,(230)Ch[4:21],
,,,,,,(240){2}B7h[2:7]/B6h[2:7]/E7h[2:7],
{4},,,,,(250)B2h[4:7]/E3h[4:7]/B3h[4:7],
,,,,,,(260){1},
,,,,{4},{16}1,
2,3,4,8,7,6,5,{4}4h[4:1],
2-5[8:1],2/6-2[8:1],6/4-8[8:1],4,
7-4[8:1],7/3-7[8:1],3/5-1[8:1],5,
{8}2,1,{4}3h[8:1],{8}7,8,{4}6h[8:1],
{16}4,3,2,1,5,6,7,8,,,,,5,4,{8}5,
{4}7-4[8:1],7/3-7[8:1],3/5-1[8:1],5,
2-5[8:1],2/6-2[8:1],6/4-8[8:1],4,
{8}7,8,{4}6h[8:1],{8}2,1,{4}3h[8:1],
{16}5,6,7,8,4,3,2,1,,,,,4,5,{8}4,
{4}7h[8:1],5/7h[8:1],7h[8:1],3/7h[8:1],
7h[8:1],{16}1/7h[8:1],2,{8}3,{4}7h[8:1],{16}2/7h[8:1],3,{8}4,
{4}2h[8:1],4/2h[8:1],2h[8:1],6/2h[8:1],
2h[8:1],{16}8/2h[8:1],7,{8}6,{4}2h[8:1],{16}7/2h[8:1],6,{8}5,
3,4,3,4,2,5,2,5,
1,6,1,6,8,{16}7,8,7,8,7,8,
{2}6<5[4:3],{16}A8,A1,A2,A3,{4}A4,
{2}3>4b[4:3],{16}A1,A8,A7,A6,{4}A5,
{1},,{16}E7/E3/Cfh[16:1],
B6/B3,{8}B5/B4,{24},,,,,,,,,,,,,,,,,,{12}3,
4,3,5,4,5,2,4,2,6,4,6,
{6}1>5[2:1],5,5,5,,8,
8<4[2:1],4,4,4,{48},,,,,,,,,,,,,,,,{16}3,
2,1,8,4,3,2,1,5,4,3,2,6,5,4,3,
{1}A2h[2:5],
{6},,,,,,,,,,,,5/6-1V37-4[4:3],
4,4,4,{3}4,
{6}2V48-3[4:3],5,5,5,{3}5,
{6}6q1[2:1],1x,2x,3xh[4:1],,,3p8[2:1],
8x,7x,6xh[4:1],{48},,,,,,,,,,,,,,,,{16}5,
6,7,8,E5,E6,E7,E8,E1,E2,E3,E4,{4}E5f,
{6}6x/7x,6/5,5/4,4/3,{3}3/2,
{6}3x/2x,3/4,4/5,5/6,{3}6/7,
{6}8>3[4:1],7,7,8<5[4:1],1,1,
{1}8z4[8:3]*s4[8:3],
{6}8/6,7/5,6/4,5/3,{3}4/2,
{6}1/3,2/4,3/5,4/6,{3}5/7,
{6}1<6[4:1],2,2,1>4[4:1],8,8,
{1}1s5[8:3]*z5[8:3],
{12}6,6x,4,4x,5,5x,3,3x,7,7xh[4:1],,,4,
4x,6,6x,5,5x,7,7x,3,3xh[4:1],,,{1}1<5b[2:1]*>5[2:1],
{6}7/4,6,5,6,8,7,
(250)6/1,2,5,3,4,2,
(240)2/5,3,4,3,1,2,
(230)3/8,7,4,6,5,7,
(220){1}6x>4-8>2<8-4<6[4:13],
,,,8pp7[1:1],
{2},5qq6[1:1],
,,{1}1qq2[1:1],
{2},4pp3[1:1],
,,2h[1:1],
3V51[2:1],
,8<4[2:1]/3-8[2:1],
{4},,1/5,2/6,
{1}7v1[2:1]/3v5[2:1],
{4}8/4,7/3,{2}2v8[2:1]/6v4[2:1],
{4},,7,6,
{2}5v8[2:1],8>3[2:1],
3v6[2:1],4v1[2:1],
1<6[2:1],6v3[2:1],
5h[2:1],4h[2:1],
6<3[4:1],{4}Cf,{16}4,5,4,5,
{4}4,3/6,Cf,{16}5,4,5,4,
{1}5<4[4:3],
{4}A7/B7,A6/B6,{2}4>5[4:3],
{4},,A2/B2,A3/B3,
{8}4xh[1:1],,,5,,,{4}6,
{2}7<4[4:1],1h[2:1],
8h[2:1],2h[1:2],
{1}7bh[2:3],
{4},,,,3/D2,
3/D1,3/D8,3/D7,
3/D6,3/D5,3/C,3/E1,
7/D1,7/D2,7/D3,7/D4,
7/D5,7/D6,7/C,7/E2,
{8}6/4,4/6,3/7,3/7,8/2,8/2,1,1,
1/7,7/1,6/2,6/2,3/5,3/5,4,4,
{16}5,4,5,4,5,4,5,4,5,4,5,4,5,4,5,4,
{1}5b-1[8:1],
{2}8h[4:1],{16}8b/7,6,{8}5,{16}8b/1,2,{8}3,
{16}8b/7,6,{8}5,{16}1/8bp4<7[8:3]*q4>1[8:3],2,{8}3,{2}8b,
{4}8h[4:1],{16}1,2,3,4,{4}8h[4:1],{16}7,6,5,4,
{4}3-7-1[4:1],8<5-1>4b[2:1],,,,Cf,
{16}1b/2,3,{8}4,{16}1b/8,7,{8}6,
{16}1b/2,3,{8}4,{16}8/1bq5>2[8:3]*p5<8[8:3],7,{8}6,{2}1b,
{4}1h[4:1],{16}8,7,6,5,{4}1h[4:1],{16}2,3,4,5,
{1}6pp8[2:1]/2pp4[2:1],
{8}7-4[8:1],3-7[8:1],7,3,6-1[8:1],2,6-4[8:1],{16}4,3,
{4}6/2V48[4:1],{8}8>1-5[4:1],7,6h[4:1],,,4,
2-5[8:1],6-2[8:1],2,6,3-8[8:1],7,3-5[8:1],{16}5,6,
{4}3/7V51[4:1],{8}1<8-4[4:1],2h[4:1],,,3-7[8:1],5,
{4}3,{16}8-5[8:1]*-3[8:1],7/1,{8}2/6,{4}8,2-7[8:1]/6-3[8:1],
2/6,{8}1-7[8:1],6,1-5[8:1],4,{16}1/6,7,{8}8,
{4}8,{16}1-4[8:1]*-6[8:1],2/8,{8}7/3,{4}1,{16}8,7,6,5,
4/8,1,2,3,4/1,8,7,6,5/1,2,3,4,{4}8-4[8:1]/5-2[8:1],
{12},,,1,3,1,3,1,3,1,{6}3h[12:5],
{12},,,2,4,2,4,2,4,2,4,2,
{4}4,5,{8}3/6,,,2/7,
,,{4}1bh[4:1]/8h[4:1],{8},8bh[4:1]/1h[4:1],,,{1}1bh[4:3]/8h[4:3],
{16}2b,7,2,7,2,7,2,7,2,7,2,7,2,7,2,7,
1b,8,1,8,1,8,1,8,1,8,1,8,1,8,1,8,
{4}1bh[4:1],{24}8,7/2,6/3,5/4,,,{8}7-3[8:1],6,7/2-5[8:1],1,
{24}2/5bV38b[4:1],6,7,8,{48},,,,,,,,,,,,,,,,{16}7,6,5,4,3,2,1,8,
{4}7-5[8:1]/3-1[8:1],3/7,{8}2-6[8:1],3,2/7<4[8:1],8,
{24}4/7b-3[8:1],3,2,1,,,{4}7b,{12}1/5,2,3,8/4-1[8:1],7,6,
{4}5/4,{16}2,5,{8}3,{16}6,4,{8}7,{16}1-6[8:1],2,3,4,
{4}5/1,{16}8-3[8:1],,,5,{4}8-6[8:1]*-5[8:1],8b,
{16}3,4,3,4,2,5,2,5,1,2,3,4,5V31V75[2:1],6,7,8,
{8}1,,,4h[8:3],{24},,,,,,8-4[8:1],7,6,2,3,4,
,,,,,,{8}1-6[8:1],6,1,8-4[8:1],4,8,
{2}3h[2:1],{16}5,4,{8}6,{16}4,5,{8}3,
{4}2b-5[8:1]/6b-1[8:1],2-7[8:1]/6-3[8:1],2/6,{8}1x/8x,{24}1bx/8bx,7/2,6/3,
{2}4-7[8:1]/5-2[8:1],{12}1b,8b,2b,8b,1b,7b,
{4}2b,{8}6-1[8:1],5,3-8[8:1],4,7,7,
{24}7b/1,6,5,4,{48},{16}1,,,{8}1,{24}2b/8,3,4,5,{48},{16}8,,,{8}8,
1/2,3/4,6/5,{16}7/8,1,2,3,4,5,{4}6h[4:1],
{24}1b,8,7,6,5,4,1b,2,3,4,5,6,8b,1,2,3,4,5,6/2b,7/3,8/4,1/5s1<8z4[8:13],,,,,,,,,{4}4z8>1s5b[4:5],
,,,,,,1/8<5[8:1],
{24}1,2,3,4-8[8:1],,,,,,{8}Cf,{16},,,,1,
1,1,1,1,1,1,1,1,1,1,1,1,1,1,1,
{4}2b/8b,{16}7,6,5,4,7,6,5,4,1,8,7,6,
2,3,4,5,2,3,4,5,8,1,2,3,7,6,5,4,
2,3,7,6,1,2,6,5,2,3,7,6,3,4,8,7,
2,3,4,5,8,7,6,5,1,2,3,4,7,6,5,4,
1,8,7,6,5,4/8,3/7,2/6,1/5,8,7,6,5,4/8,3/7,2/6,
1/5,4,3,2,1,8/4,7/3,6/2,5/1,4,3,2,1,8/4,7/3,6/2,
{4}5/1,{16}2,4,2,4,3,5,3,5,4,6,4,6,
5,4,3,2,6,5,4,3,7,6,5,4,8,7,6,5,
{4}4/2,{16}3,3,3,3,3,3,3,3,3,3,{8}3,
{4}2/4h[8:1],5/3h[8:1],{8}6/5,{16}7,5,7,5,7,5,
{8}8-4[8:1],4,{4}8,{8}6h[4:1],{16}7,8,1,2,3,4,
{8}5/6,7,5/4,3,4/5,6,4/3,2,
{16}5bh[8:1],,,4bh[8:1],,,{8}5bh[8:1],E4/B3/A3,E2/B1/A1,E8/B7/A7,E6/B5/A5,
{16}2b,3,4,5,6,7,8,1,2/7b,6,5,4,3,2,1,8,
{8}7/3,4/7,5/7,7/6,7/8,1/8,1/2,1/3,
{16}4/1b,2,3,4,5,6,7,8,{32}1/4b,3,2,1,8,7,6,5,4b-8[0.2727##0.1364],3,2,1,8,7,6,5,
{1}4b,
{4},(210)E6h[4:17],,,,,(200){2}E4h[1:3],
{4},,,(190)E7h[4:7],
,,,,(180){1}E3h[2:1],
{8}2b/6b,{16}1,1b,,7b/3b,,,8,8b,{48},,,,,,{24}1b/8b,2/7,3/6,4/5,{48},{16}1,
1b,,,8b,,,{8}8b,{32},,,,1b,2/8,3/7,4/6,{16}5,{32},,,,8b,7/1,
2/6,3/5,{16}4,{32},,,,,,1b,2/8,3/7,4/6,{16}5,{32},,,,,,,,8b,7/1,2/6,5/3,4,5,6,7,
8,1,2,3,4,5,6,7,8,1,2,3,4,5,6,7,8,1,2,3,4,5,6,7,8,1,2,3,4,5,6,7,
8,1,2,3,4,5,6,7,8,1,2,3,4,5,6,7,8,1,2,3,4,5,6,7,{4}8w4b[8:1],
{1}Cfh[16:1],
{4}E6,E4,E8,E2,
E1,E5,E7,E3,
C,B7/B3,E6/E2,E8/E4,
D7/D3,D6,D4,D7,
D3,D8,D2,D1,
{1}C,
E
