&title=もっふもふ DE よいのじゃよ
&artist=仙狐(CV.和氣あず未)
&first=0
&des_5=Yuurika
&lv_5=13
&des=Yuurika
&inote_5=(108){1},
{4}5<1[4:3]*pp2[4:3],,,,
{8},,,3h[8:11],,,,,
5pp1[4:3],,,,,,,,
4pp4[4:3]*qq4[4:3],,,,,,,,
{24},,,,,,,,,,,,35,,35,,,2,4,,4,2,,,
{8}6h[4:1],1,5h[4:1],8,6h[4:1],1,4h[4:1],8,
5h[4:1],1,3h[4:1],8,4h[4:1],1,3h[4:1],8,
6h[4:1],1b,1b>4[8:1],2,5<8[8:1],6,2>6[4:1],1,
6V42[4:1],,2V86[4:1],,6>3[4:1]*-3[4:1],,,,
{16},,6,5,6,5,6,,3,4,3,4,3-1[12:1],4,,,
3b,,,,7,8,6,8,7-5[12:1],8,6,8,7,,,,
1,,24,,45,,57,,18,,34,,56,,27,,
1,8,1,8,2<6[8:3],7,2v4[4:1],7,,,,,,,,,
3,4,2,,5,3,5,3,6<1[8:1],4,6,4,6,,,,
2,8,1,7,2-4[12:1],8,1-5[8:1],7,2-6[8:1],,1,,2,,,,
8<4[4:1],,,,4>8[4:1],,,,8<4[4:1],,,,4>4[2:1]*>4[2:1],,,,
,,,,,,,,,,,,1b/7b,,,,
{8}3qq7[2:1],,4,,5,5-1[8:1],6,5<4[8:5],
,,,,5,,5,,
6pp2[2:1],,5,,4,4-8[8:1],3,4>5[8:5],
,,,,4,,4,,
3pp6[2:1],,8,,1,,2h[4:1],,
6,15,48,3>7[4:1]/7<3[4:1],,3q8[8:3]/7q4[8:3],,,,,,,
{24}3b>8[8:1]/5,,2,4,,2,3,,,5<8[8:1],,4,6,,3,5,,,4h[2:1],,,,,,
2,,,6,,,8pp4[4:1]*qq4[4:1],,,17,,17,,,,,,,,,,,,,
6<1[8:1]/4,,7,5,,7,6,,,4>1[8:1],,5,3,,6,4,,,7<4[4:1],,,,,,
4q8[4:1],,,,,,8,,,1>4[8:1],,,,,,1<6[8:1],,,,,,1,,,
,,,5,,,68,,,5,,,46,,,3,,,24,,,1,,,
24,,,3/5pp1[8:3],,,46,,,5b/7h[8:3],,,,,,,,,,,,,,,
8<4[4:1],,,,,,4>8[4:1],,,,,,8<4[4:1],,,,,,4>4[2:1]*>4[2:1],,,,,,
,,,,,,,,,,,,,,,,,,1b/7b,,,,,,
2>5[8:1]/8,,6,5,,1,2,,,8<5[8:1],,3,4,,1,8,,,1h[2:1],,,,,,
3,,,7,,,5V72[4:1]*V38[4:1],,,46,,46,,,,,,,,,,,,,
7<4[8:1]/1,,3,4,,8,7,,,1>4[8:1],,6,5,,8,1,,,6<1[4:1],,,,,,
1p5[4:1],,,,,,5>2[4:1],,,,,,2p5[4:1],,,,,,5,,,,,,
2,,,3,,,24,,,1,,,82,,28,,,17,,,,6,,,
68,,,7/1pp5[8:3],,,82,,,1b/3h[8:3],,,,,,,,,,,,,,,
3<1[4:1],,,,,,5,,,,,,6>8[4:1],,,,,,4,,,,,,
4,,,37,,,26,,,15,,,4/8<8[4:1],,,,,,,,,,,,,,,,,,,,,,,,E
