&title=[音]青春コンプレックス[宴]
&artist=結束バンド
&first=0
&des_7=你怎么知道2号键绝赞看孤独摇滚之后懒得推分了
&lv_7=14?
&des=你怎么知道2号键绝赞看孤独摇滚之后懒得推分了
&wholebpm=190
&shortid=11634
&genreid=101
&genre=POPS&アニメ
&versionid=24
&version=PRiSM PLUS
&demo_seek=40.286
&demo_len=20.008
&clock_count=4
&inote_7=(190){1},{8}1h[16:1]/8h[16:1],,,5h[16:1]/7h[16:1],,,2h[16:1]/4h[16:1],,,,
{12}6,5,4,{4}3,{4},
{8}7b/5,4,3,3h[4:1],,4,4,5,,6,,{16}6,5,{8}6,4,3,3,24,4,35,3h[4:3]/5h[4:1],,,,4,,5,,{16}3,4,{8}5h[4:1],,{4},
{8}64,6h[4:1]/4,4,5,,74,,63,,52,,{16}6,5,{8}65,5`4,3`4,5`3,64,6h[4:1]/4h[8:1],,4,,5`4,,6`3,,7,8,3h[8:0],6h[4:1]/5h[4:1],,
,65,6/5>8[2:1],6,65,6,6,6,6,6,65,,64,,63,,,24,3/5-1[8:1],3,35,3,4<8[8:1]/3,3,3/4,3,{4}3h[2:1],4,5,{8},18,
1h[4:0]`8-4[8:1],1h[8:0],1h[8:0]`8b,1h[8:0],1h[8:0]`2-5[8:1],1h[8:0],1h[8:0]`2b,1h[8:0],{4}3h[4:3],4,5,{8}6,72,
4b`3^8[8:1],4,4w8[8:1]`3,4,{4}4bpp4[4:1],4bqq4[4:1]*qq4[4:1],3,5,6h[4:1]/3h[4:1],,
{16}1/8b,2,3,4,5,6h[4:1],7,,,5h[8:1],,{8}4h[8:1],3h[8:1],7h[8:1],8h[8:1],1h[8:1],2h[8:1],5h[8:1],4h[8:1],3h[4:1],4,
2h[8:1],3h[8:1],4h[8:1],{4}5,4`6,5`7,{8}6,5,4,{16}3,5,3,5,3,5,3,5,3h[8:1],
{8}4<8[4:1],3h[16:1],3h[16:1]/4,3h[16:1],3h[8:1],4h[8:1],5h[8:1],6h[8:1],5,,54,,43,,,6,6h[32:1]/5p1[4:1],6h[4:1],5,,5h[8:1],4h[8:1],3h[8:1],2h[8:1],1,,8,,5,,,4,
4/3-7[8:1],4,43,4,4/5-1[8:1],4,45,4,3-8[8:1],3,5-2[8:1],5,5,,,2,2/3v8[8:1],2,2/3b,2,2/1v4[8:1],2,2/1b,2,1b/2b,,8b/7b,,5b-8[8:1]/4b-1[8:1],,{4},3h[8:0],2h[8:0],6h[8:0],7h[8:0],
{8}6v1[8:1]/5b,,65,,3b/4v7[8:1],,34,,1b-5[8:1]/8b-6[8:1],,1-3[8:1]/8-4[8:1],,1-4[8:1]/8-5[8:1],,1^4[4:1]/8^5[4:1],,{2}1b/8b,{4},1b<6[8:1],1>4[8:1],1-6[8:1],1-4[8:1],1w5[8:1],1b,
{4}8/1>5[8:1],1b/8<4[8:1],8b/1-5[8:1],8-4[8:1]/1b,1-5[8:1]/8b,1b/8b,
{4}6-2[4:1],2>6[4:1],6<2[4:1],2^5[4:1],5s1[4:1],{8}1bw5[8:3],,,,,,7,,18,,2/1v4[8:1],1,1b/8,,8/7v2[8:1],7,8/7b,,1-5[8:1]/8-4[8:1],18,{4}1b-3[8:1]/8b-6[8:1],1b^4[4:1]/8b^5[4:1],1b/8b,,,
8<4[8:1],8>4[8:1],8-4[8:1],8-3[8:1],8-5[8:1],8w4[8:1],,,1-7[8:1]/2-6[8:1],1-5[8:1]/2-4[8:1],1-6[8:1]/2-5[8:1],12,8V24[8:1],4V61[8:1],1>4[32:3],4-8[8:3],4z8[8:1],4b,4b/5b,{8}36,{16}18,27,36,45,,,
{8}4b/8b,4b/8b-4[8:1]*-4[8:1],8b/4b-8[8:1]*-8[8:1],,5,5,56,56,,{16}3,4,3,,2,,,,3,,4,,5,,{8}6h[8:1],5h[8:1],4h[8:1],3h[4:1],4,4h[8:1],,3h[4:1],,5h[8:1],4,5h[4:1]/3h[4:1],,,
{16},6h[8:0],5h[8:0],4h[8:0],{8}3b,,,,2h[8:1],1h[8:1],8h[8:1],7h[8:1],6,6h[16:0]`5h[16:0],,5h[16:0]`4h[16:0],,3,2,1,6h[8:1],5h[8:1],4h[8:1],3h[8:1],6,6h[8:1],5h[8:1],6,5,4,3,{4}2h[2:1],{8},{16}7,6,5,4,45,,1,2,3,4,8,7,6,54,3b/6b,,,,3b/6b,,,,75,6,75,,24,3,24,,28,1,28,,27,,{8}1b/5b,1b-5[8:1]/5b,5b-1[8:1]*-1[8:1]/1b,15,,8,{16}35,4,{4}5h[4:1],{8}4h[4:1],{8}3,3h[4:1],,,{16},6,5,4,3b`6h[4:3],{4},,{16},,,{4}1h[4:1],6h[4:3],,,{16},5,4,3,{8}3h[8:1],4h[8:1],5h[8:1],6h[4:1],,5h[8:1],6h[8:1],5h[8:1],4h[8:1],{16},3,{8}4,5,46,4h[8:1]/6h[8:1],,6b/3b,{1},,,{2},{16}6h[8:0],5h[8:0],4h[8:0],3h[8:0],{4},
1/2>5[8:1],1/2<7[8:1],1/2-6[8:1],2b,7/5>2[8:1],5<8[8:1]/7,7/5-1[8:1],5b,{16}4,5,4,5,4,5,4,5,3,6,3,6,3,6,3,6,2,7,2,7,2,7,2,7,1,8,1,8,1,8,1,8,1b,1,1,1,1b,1,1,1,1b,1,1,1,1b,1,1,1,8b,8,8,8,8b,8,8,8,8b,8,8,8,8b,8,8,8,{4}8b-4[4:3],,,,5,5,5,{8}45,45,{4},,
5h[4:1]/1b<6[8:1],1b,4h[4:1]/1b>5[8:1],1b,18,1b-3[8:1]/8b-4[8:1],1b-5[8:1]/8b-6[8:1],1b-4[16:3]/8b-5[16:3],1b/8b,1-6[8:1]*-6[8:1]`2-5[8:1]*-5[8:1],1-7[8:1]/2-4[8:1],1-5[8:1]/2-6[8:1],1b/2>6[8:1],2<6[8:1],2-6[8:1],2b,{8}3^5[8:1],7^1[8:1],3,7,2^4[8:1],8^6[8:1],2,8,1s5[8:1]*-5[8:1],,1,,28,,{4}5-1[8:1],5-2[8:1]*-3[8:1],5-8[8:1]*-7[8:1],5pp5[4:1],5qq5[4:1]/4h[4:1],,1,1b/2b,,1-7[8:1]/6-2[8:1],16,1-6[8:1]/5-2[8:1],15,1>6[16:5],5<2[16:4],2v5[4:1],5w1[2:1],,,,2v4[8:1],6v8[8:1],1v7[8:1],3v6[8:1],3,
5-2[8:1]/1-6[8:1],5b/1b,3-8[8:1]/4-1[8:1],4b/3b,5<4[4:1],5>6[4:1],5,4>1[4:1],1<5[4:1],5v2[4:1],2v4[4:1],4<8[4:1],8w4[8:1],,2b/7b,45,
{8}3b/6,35,34,37,7b/3,74,75,76,27,27,18,18,{32}1,2,3,4,5,6,7,8,1,2,3,4,5,6,7,8h[32:33],{4}1b-5[8:1],1,2-6[8:1],2b,1-6[8:1]*-7[8:1],1-3[8:1]*-4[8:1],1-5[8:1],1w5[4:1],1b,,
{8},,42,3,57,6,17,8,28,1,82,85,1h[4:1],8,{16}8,27,3b/6,4/5b,{8}6h[4:1],5,{16}5,64,37,28,{8}1-4[8:1],8,18,8,5-8[8:1],4,45,4,4,4,4,4,35,35,35,35,6,6,6,6,57,57,57,,
1>5[8:1],1,8<4[8:1],8,1s5[8:1],1,8z4[8:1],8,1-5[8:1],1,8-4[8:1],8,7-3[8:1],7,6-2[8:1],6,{4}5bp1[4:1],1-4[4:1],4p7[4:1],8h[8:1],{8}6V84[4:1],6,4>1[4:1],4,1<4[8:1],8,3b,3h[8:0],
{4}1bw5[8:1],1-7[8:1]*-3[8:1],1-6[8:1]*-4[8:1],1-5[8:1]*-5[8:1],1b<5[4:1],5b>1[4:1],1b>4[4:1],5h[8:1],{8}5,56,5,54,5,53,5,52,1b/5b,,1b/5b,,,15,{16}2,3,4,5,
{4}2-4[8:1],8-6[8:1],{8}1-5[4:1],2,3,4,8,7,6,5,{6}4,3h[6:1],2h[6:1],1h[6:1],8h[6:1],7h[6:1],6h[6:1],5h[6:1],4h[6:1],{12}3,2,1,8,7,6,{16}5,4,3,2,{24}1,8,7,6,5,4,
{8}3,4,5,4h[8:0]`3h[8:0],,4h[8:0]`5h[8:0],,5h[8:0]`6h[8:0],,6h[8:0]`3h[8:0],
45,{16}3,4,3,4,3,4,3,4,3,4,{8}25,34,,47,56,,27,2b/7b,E
