&title=Miku
&artist=Anamanaguchi
&first=0.04
&des=aycp
&lv_5=12
&des_5=aycp
&inote_5=
(128){4},{8},,,5,4,6,
{2}7h[4:1],6h[4:1],
{16}3/2,,,4/1,,,{8}2h[8:1]/3h[8:1],,1,2,3,
{2}5h[4:1]/8h[4:1],6h[4:1]/7h[4:1],
{16}5/8,,,7/6,,,{8}2/3,,4/2,3/5,4/6,
{4}5h[4:1],4h[4:1],{2}3h[4:1],
{8}3/6,1>4[8:1]/8<5[8:1],,8/1,,6/3,5/7,6/3,
{4}4/2>5[8:1],2,5/7<4[8:1],7,
7p2[8:1],1V35[8:1],{2}8V64[8:1],
{4}7-2[8:1]/6-3[8:1],6/7,6-3[8:1]/7-2[8:1],6/7,
{8}2/3,1/4,5/8,6/7,{4}6-3[8:1]/7-2[8:1],7/6,
5q1[8:1],C,4p8[8:1],C,
{8}5,4/6,4,5/3,{4}1w5[8:1],1,
8<5[8:1],2,1>4[8:1],7,
{8}5/7,3/5,2,7,1/8,7/2,{4}3h[8:1]/6h[8:1],
5h[2:1],6,4h[2:1],3,
{8},5/4>1[8:1],6,7,8,5,4/6,5,
{4}1-4[8:1]/2-4[8:1],1/2,8-5[8:1]/7-5[8:1],7/8,
{8}4/5,3-6[8:1]/2-7[8:1],,3/2,,7/6,2/3,7/2,
{4}1-4[8:1]/8-5[8:1],1/8,2-6[8:1]/7-3[8:1],2/7,
{8}6h[8:1],5h[8:1],4h[8:1],3h[8:1],,1,8,2,
{4}7-4[8:1]/8-4[8:1],7/8,1-5[8:1]/2-5[8:1],1/2,
{8}8h[2:1],1,2,3,4,5,4,6,
{4}1-5[8:1]/8-4[8:1],1/8,2v4[8:1]/7v5[8:1],2/7,
{8}1h[2:1],8,7,6,5,4,5,3,
{4}1/8-5[8:1],8/1-4[8:1],1/7-4[8:1],7/2-5[8:1],
2/8-5[8:1]*>5[8:1],8b,{8}1s5[8:1]/8z4[8:1],1/8,{4}8/1,
{8}6h[8:1],3,3h[8:1],6,7/3,2/8,1w5[8:1],1,
,,{4}6<3[8:3],{8}4,5,{4}4,
{8}8,8,1/7,1,1,8/1,7/2,3/6,
{4}5-8[8:1]/4-1[8:1],4/5,{8}2>4[8:1]/7<5[8:1],1/8,{4}7/2,
{8}3/8,6/1,2,7,2/7,6/3,4q1[8:1]/5<8[8:1],4/5,
,,{4}5h[4:1],{8},3,6,2/7,
{4}1>3[8:1]/8-4[8:1],1/8,1-5[8:1]/8<6[8:1],1/8,
{8}4h[8:1],5h[8:1],3h[8:1],6h[8:1],3,2/7,6/3,1/8,
{4}2-7[8:1]/7-2[8:1],2/7,3-6[8:1]/6-3[8:1],3/6,
{8}8h[8:1],1h[8:1],7h[8:1],2h[8:1],7,3/4,2/5,1/6,
{4}8p4[8:1]/7-4[8:1],7/8,1q5[8:1]/2-5[8:1],1/2,
{8}7/6,5/8,4/1,2h[8:1]/3h[8:1],,5/6,7/4,3/8,
{4}1p4[8:1]/2v4[8:1],1/2,8q5[8:1]/7v5[8:1],7/8,
{8}4/6,5,4/6,3/7,5,4/6,3/7,1,
{4}2-4[8:1]/8-6[8:1],2/8,1v4[8:1]/7v4[8:1],1/7,
{8}5-8[8:1],6,4-1[8:1],3,{4}5v8[8:1]*v2[8:1],5,
8/1>5[8:1],1/5,1/8<4[8:1],8/4,
{8}3v6[8:1],3,7v2[8:1],7,{4}5V71[8:1]*V31[8:1],5,
{8}7/3,4/6,{4}7/3,{8}6/2,1/7,{4}6/2,
{8}4p8[8:1],5q1[8:1],4,5,{4}7>3[8:1],7<3[8:1],
2v5[8:1],8v5[8:1],1>4[8:1],8q5[8:1],
{8}4,3,2/7,1/8,{2}1bqq5[4:1]/8bpp4[4:1],
{4},,,,,,,,,,,,,,,,5/4>2[8:1],
5,6/3>1[8:1],6,
4/5<7[8:1],4,3/6<8[8:1],3,
7/2-4[8:1],7,8/1-5[8:1],8,
2/7-5[8:1],2,1/8-4[8:1],1,
{8}5,5,4,6,4,1,1,8,
7,1,2,7,1/6,2/5,4,3,
{4}7h[4:1],6,{8}2h[2:1],3,4,5,
{4}6,{8}6h[2:1],5,4,3,{4}2,
7/1,8,{8}7/1,2,6,3,
{4}5,4/7,{8}6,5,6,4,
7/4,6,7,1,8,1,8/1,2/7,
3,5,{4}4h[2:1],{8},,,,5h[4:1],
3,1,4h[4:1],6,8,6/3,4/7,
{4}5-1[8:1],5b,{8}1,2/8,7/3,4/6,
{4}5-8[8:1],5,{8}8,7/1,2/6,5/3,
4,2<7[8:1],{4}7>2[8:1],{8}3,4,5/4,6/3,
{4}6v3[8:1]/3v6[8:1],3/6,{8}7h[8:1],2h[8:1],8h[8:1],1h[8:1],
{4}6>2[8:1],6,{8}1,8,7,6,
5/4,3,6,7/2,8,1,1w5[8:1],1,
,,,,,5b,3b,8b,
{4}1bxq6[8:1]/2bxp5[8:1],1/2,8xp3[8:1]/7xq4[8:1],7/8,
{8}5/4,3/6,5/7,2/4,3/6,3,6,2/7,
{4}1xs5[8:1]/8xz4[8:1],1/8,7q4[8:1]/2p5[8:1],2/7,
{8}2/3,1/4,8/5,7h[8:1]/6h[8:1],,5x/7x,6x/4x,5x/3x,
{4}1V35[8:1]/2-5[8:1],2/1,8V64[8:1]/7-4[8:1],7/8,
{8}2h[8:1],7,6h[8:1],3,5/4,2/8,1,3/7,
{4}8-4[8:1]/7q4[8:1],8/7,1-5[8:1]/2p5[8:1],2/1,
{8}6b/5,4/7,3/8,2h[8:1]/1h[8:1],
E
