&title=FINALE
&artist=Triodust
&first=0
&des=べにばらが点在する坂
&lv_5=13+
&inote_5=(120)
{1},
{4}3h[4:1],4h[4:1],1h[2:3],,
{2}8,7,
{2}6pp2[4:5],2,
{2}3,{8}4h[2:1],,1,8,
{4}7h[2:1],6,5h[2:1],4,
{4}3h[2:1],2,1h[2:1],,
{4}4qq8[4:5],5,6,8h[4:1],
{4},7,6,{8}5,4,
{2}3-8[8:3]/6,5-2[8:3],
{2}7-4[8:3],1-6[8:3],
{2}2-5[8:3],7-4[8:3],
{1}1w5[4:2],
{4}4w8[8:3],,,
{16}2b/6b,,45,,7h[8:1]/3,,5,6,8-4[8:1],,7,1,
{16}8,,2,,2h[8:1]/6,,4,3,1-5[8:1],,2,8,
{16}1,,7,,7h[8:1]/3,,4,6,1<6[8:1],,7,3,
{16}1,,2,,2h[8:1]/6,,5,3,8>3[8:1],,2,6,
{16}8-4[8:1],,6,6,8-3[8:1],,5,5,8<5[8:1],,7,,
{16}1/8-4[8:1],,2,2,8-5[8:1],,3,3,8,,2,,
{16}8/1-5[8:1],,7,7,1-4[8:1],,6,6,1<6[8:1],,8,,
{16}2/1-5[8:1],,3,3,1-6[8:1],,4,4,1,,3,,
{16}5/4>2[8:1],,7,6,4-8[8:1],,8-2[8:1],7,4,,6,,
{16}5<7[8:1],,2,3,5-1[8:1],,1-7[8:1],2,5,,4,,
{16}5>3[8:1],,7,7,5-1[8:1],,8-6[8:1],8,5,,8,,
{16}4<6[8:1],,2,2,4-8[8:1],,1-3[8:1],1,4,,1,,
{8}7b-4[8:1],,2-6[8:1],1-7[8:1],2q5[8:3],1,
{8}2,,7-3[8:1],8-2[8:1],7p4[8:3],8,
{8}7,,2-6[8:1],1-7[8:1],2q5[8:3],1,
{4}2,8w4[8:1],8,
{8}6/2V41[4:1],,7-5[8:1],8-4[8:1],7-3[8:1],8,
{8}7V58[4:1],,2-4[8:1],1-5[8:1],2-6[8:1],1,
{8}2V41[4:1],,7-5[8:1],8-4[8:1],7-3[8:1],8,
{4}7V51[4:1],1q4[8:3]*-6[8:1],,
{8}8bqq5[4:2],,4,3,2,1,
{8}1pp5[4:2],,5,6,7,8,
{8}8qq3[4:2],,4,3,2,1,
{4}1h[4:1],7h[4:1],5h[4:1],
{8}4p1[4:2],,8,7,6,5,
{8}5q7[4:2],,1,2,3,4,
{8}4p3[4:2],,8,7,6,5,
{4}5h[4:1],8q3[8:3],4-7[8:1],
{8}4b,,1-5[8:1],5-1[8:1],1V37[4:1],8,
{8}8h[8:1],,8-4[8:1],4-8[8:1],8V62[4:1],1,
{8}1h[8:1],,1-5[8:1],5-1[8:1],1V37[4:1],8,
{4}7V15[4:1],5p2[8:3],1-6[8:1],
{8}1b,,8-4[8:1],4-8[8:1],8V62[4:1]*-2[8:1],1,
{8},,1-5[8:1],5-1[8:1]*-7[8:1],1V37[4:1],,
{8},,8-4[8:1],4-8[8:1],8V62[4:1],,
{4}2V84[4:1],4w8[8:1],,
{4}3p1[4:2]/5b,6,7,
{4}8p6[4:2],2,3,
{8}4qq1[4:2],4,5,5,6,6,
{8}8qq5[4:2],8,1,1,2,2,
{8}3-1[8:1],6,3-5[8:1]/7,7,38,8,
{8}3/6-8[8:1],3,6-4[8:1]/2,2,61,1,
{8}6h[8:1]/2,2,3h[8:1]/7,7,8h[8:1]/4,4,
{8}37,26,51,48,7q1[4:12]*-3[8:1]/3,7/3q5[8:23],
{1}7b,
{1},
{1},
{4},,{8},4,5,3,
{8}2/6h[8:3],,,4h[8:5],,,2,1,
{16}8,,,8,,,8h[8:11]/1,,,,2,,,3,,,
{1}4h[4:3],
{128}7-2[8:5]*-2[8:5],3-6[128:79],{64},{32},{16},{8},{4},,,
{8}4,,,8,,,6h[4:4]/3,,
{1}2h[1:1],
{1}7p4[4:3]*p4[4:3],
{1}2q5[4:3],
{128}8qq5[4:6]*qq5[4:6],8?pp4[128:191],{64},{32},{16},{8},{4},,,
{1},
{4}4/5h[4:3],7,8,{16}1>6[16:5],2>7[16:5]/6,3<8[16:5]/7,4<1[16:5]/8,
{4}1b-5[8:1]/5h[8:1],1,{16}3V51[16:3],,,1V37[16:3],,,7V53[4:1],,
{4}7-1[8:1],,4h[4:1]/8h[8:1],{16}8<3[16:5]*<3[16:5],7<2[16:5]*<2[16:5]/3,6>1[16:5]*>1[16:5]/2,5>8[16:5]*>8[16:5]/1,
{4}8-4[8:1]*-4[8:1]/4h[8:1],8,{16}6V48[16:3]*-4[64:5],,,8V62[16:3]*-6[64:5],,,2V86[4:1]*-8[8:1],,
{4}2-4[8:1]*-4[8:1],,5h[4:1]/1h[8:1],{16}1>6[16:5]*>1[16:8],2>8[16:6]/6,3<7[16:4]*<7[16:4]/7,4<6[16:2]/8,
{4}1-5[8:1]/5h[8:1],1,{16}2V48[16:3],,,8V26[16:3],,,6V48[4:1],,
{4}7-3[8:1]*-3[8:1],7,{16}7V51[16:3]*-5[64:5],,,1V73[16:3]*-7[64:5],,,3V51[4:1]*-5[32:3],,
{4}2-6[8:1],2,{16}4V62[16:3]*-6[64:5],,,2V48[16:3],,,8>8[2:1]*>8[2:1],,
{8}8<2[8:3],,,,,,1,1,
{8}2bq5[8:3]/8,,1,8,7p4[8:3]*p4[8:3],,3,2,
{8}1w5[4:1],,,,,2,1,8,
{8}7qq3[8:3]*qq3[8:3]/1,,8,1,2pp6[8:3],,5,6,
{8}7h[4:2],,,3h[8:1],,26,15,48,
{8}1b-7[8:1],7V13[4:1]*V15[4:1],1-3[8:1],,,,46,57,
{8}8V24[4:1],2V86[4:1]*-4[8:1],8-6[8:1],,,,53,42,
{8}1-7[8:1],7V13[4:1]*V15[4:1],1V37[4:1],,,,5,68,
{8}7V13[4:1],1V37[4:1]*V75[4:1],7-5[8:1],,,,68,17,
{8}2V86[4:1],8V62[4:1]*V24[4:1],2V48[4:1],,,,1,7,
{8}6V82[4:1],8V26[4:1]*V64[4:1],6V48[4:1],,,,7p4[4:6]*p4[4:6],2p8[8:11],
{1}7b,
{4},,,{16},4,3,2,
{16}1/5h[1:1],,,,6,,,,8,,,4,,,6v3[8:1]*pp4[8:11],,
{1}3qq5[4:5],
