&title=Ultimate Force
&artist=削除
&first=0.15
&wholebpm=270.000
&lv_5=14+
&des=code:AsTraL
&inote_5=(270)
{1},
{4}2q2>6b[4:13]/6q6<2[4:13],,,,,,,,,,,,,,,,
{4}1bqq2[2:3]/E5h[2:1]/D5f,,,,E6,,,,6bpp5[2:3]/E3h[2:1]/D3f,,,,E4,,,,
{4}2bqq3[2:3]/E6h[2:1]/D6f,,,,E7,,
{8},7b,,8b,8bz4[2:1],,,,,,,,1bs5[2:1],,,,6b,,7b,,
{1}B7h[1:2]/B6h[1:5]/Ch[1:7]/B2h[1:4]/B3h[1:6],,,,,,,
{4}1w5b[2:1],,,,
{4}2z6[1:3],E2,E1,E8,E7,E6,E5,E4,E3h[1:2],,,,,,,,8z4[2:1],,4w8[1:2],,,,,,,,,,E7/B7/B6/B2/B3/E3/Ch[384:1],,,,
{8}2b-5[8:1],,7-3[8:1],,1-4[8:1],,6-1[8:1],,2-5[8:1],2,7-4[8:1],7,1-5b[8:1],,1,,
{8}7-4[8:1],,2-6[8:1],,8-5[8:1],,3-8[8:1],,7-4[8:1],7,2-5[8:1],2,8-4b[8:1],,8,,
{8}2-5[8:1],,7-3[8:1],,1-5[8:1],,6-1[8:1],,4-8[8:1],4,7-4[8:1],7,1-5b[8:1],,1,,
{8}7-3[8:1]*-4[8:1],,7,,1w5[8:1],,1,,3h[8:1]/7,7,2/6h[8:1],2,1>4[8:1]/5,,
{16}1/5,6,7,8,
{8}1bx-5[8:1],,2-4[8:1],,8-6[8:1],,2-6[8:1],,7<4[8:1],7,3>8[8:1],3,5xw1[8:1],,5x,,
{8}7-5[8:1],,1-3[8:1],,8-4[8:1],,2-6[8:1],,7>2[8:1],7,3<6[8:1],3,8xw4[8:1],,8x,,
{8}7x-1[8:1],,3-5[8:1],,6-2[8:1],,1-5[8:1],,7<4[8:1],7,3>8[8:1],3,5xw1[8:1],,5x,,
{8}7-3[8:1]*-4[8:1],,7,,1w5[8:1],,1,,3h[8:1]/7,7,2/6h[8:1],2,1/5,1/5,1b/5b,,
{4}8/2-4[8:1],7,7-5[8:1]/1,2,1/2-5[8:1],8,7-4[8:1]/8,
{8}1,1,
{8}2-4[8:1],,6h[8:1],,1-5[8:1],,7h[8:1],,
{16}8h[4:1],,,,6,5,4,3,2/5,4,3,2,1,8,7,6,
{4}5/2-6[8:1],5,7-3[8:1]/4,4,5/2q6[8:1],5,7p3[8:1]/4,4,
{8}1-5[8:1],1,7,7h[8:1],2-4[8:1],2,6,6h[8:1],
{32}E6,B5,B4,E4,,,,,2,,,,1,,,,
{16}7,8,7,8,7,8,7,8,
{4}7-5[8:1],2,2-4[8:1]/8,7,8/7-4[8:1],1,2-5[8:1]/1,
{8}8,8,
{8}7-5[8:1],,3h[8:1],,8-4[8:1],,2h[8:1],,
{16}1h[4:1],,,,3,4,5,6,7/4,5,6,7,8,1,2,3,
{4}7-5[8:1],7,1h[4:1]/4,
{24}5,6,7,1,2,3,
{8}8bqq5[2:1],,4,4,3,3,2h[16:1],2h[16:1],
{8}1V35[4:1],,6b,6b,8V64[4:1],,2b,2b,1h[4:1],,7h[4:1],3,
{16}4,6,4,6,5,3,5,3,
{4}2b<4p3b[4:5],,,,,,E7,E8,
{4}8bx<4[2:1]/A2h[2:1]/D2f/D3,,,,1bx>5[2:1]/A7f/D7h[2:1]/A6,,,,8bxz4b[2:1]/A2h[4:1]/D3h[4:3]/A3h[2:1]/E3f,,,,
{4}1bx/A5hf[2:1]/E6f,1bx-4b[8:1],
{32},B6,B7,E8,A8h[8:1],,,,,,,,,,,,
{4}7bxpp6[2:1]/B3f/B4h[2:1]/B5,,,,3bxpp2[2:1]/E8f/A8h[2:1]/E1,,,,
{4}7bxpp4[2:1]/B4h[4:1]/B3h[4:3]/B2h[2:1]/Cf,,,,
{4}5bx/A1hf[2:1]/E2f,5bx-8b[8:1],
{32},B2,B3,E4,A4h[8:1],,,,,,,,,,,,
{4}1bx>5[2:1]/A7h[2:1]/D8f/D7,,,,8bx<4[2:1]/A2f/D3h[2:1]/A3,,,,1bxs5b[2:1]/A7h[4:1]/D7h[4:3]/A6h[2:1]/E7f,,,,
{4}8bx/A4hf[2:1]/E4f,8bx-5b[8:1],
{32},B3,B2,E2,A1h[8:1],,,,,,,,,,,,
{4}2bxqq3[2:1]/B6f/B5h[2:1]/B4,,,,6bxqq7[2:1]/E2f/A1h[2:1]/E1,,,,
{4}2bxqq5[2:1]/B5h[4:1]/B6h[4:3]/B7h[2:1]/Cf,,,,
{4}4bx/A8hf[2:1]/E8f,4bx-1b[8:1],
{32},B7,B6,E6,A5h[8:1],,,,,,,,,,,,
{4}2b-4>3-5>4-6>5-7<6-8<7-1<8-2[4:13]*>2b[4:13],,,,,,,,,,,,,,,,
{4}7b-4-6-3-5-2-4-1-3-8-2-7[4:13]*<7b[4:13],,,,,,,,,,,,,,,,
{4}4bv5v6v7v8v1v2v3v4[4:13]*V68V24b[4:13],,,,,,,,,,,,,,,,
{4}5b-8-3-6-1-4-7-2-5[4:13]*-7-4-8-3-1-5b[4:13],,,,,,,,,,,,,,,,
{4}Ch[4:1],,,,,,E1,,E7,C,E3,,,,E6,,E4h[4:6],,E6,,E7,,
{6}B8,B7,B6,B5h[2:3],,,,,,,,,B1,,,
{8}2h[4:1],,7h[4:1],,3h[4:1],,6,5,7,5,6,4,5,4,6,3,
{8}5h[4:1],,4,4,5,3,6,2,7,6,5,4,1,2,3,4,
{8}8,8,8,8,2,2,6,6,4,5,4,5,3,5,4,5,4,3,2,1,8,7,6,5,4z8[2:1]*s8[2:1],,,,,,,,
{32}1b<6[8:1],2,3,4,,,,,
{8}1x>4[8:1],,1x-5[8:1],,1x,,3b,3,4-6[8:1],2,1-6[8:1]*-4[8:1],,1,,
{8}7h[8:1],8h[8:1],6,6,3h[8:1],4h[8:1],2,2,8,1,7-4[8:1],2,7,3,3h[8:1],,
{32}8b>3[8:1],7,6,5,,,,,
{8}8x<5[8:1],,8x-4[8:1],,8x,,6b,6,5-3[8:1],7,8-3[8:1]*-5[8:1],,8,,
{8}2h[8:1],1h[8:1],3,3,6h[8:1],5h[8:1],7,7,1,8,2-5[8:1],7,2,6,6h[8:1],,
{8}3b-1v4-2[2:3],,5h[8:1],,5h[8:1],,5h[8:1],,6h[8:1],,6h[8:1],,7h[8:1],,7h[8:1],,
{8}8b-6v7-5b[2:3],,1h[8:1],,1h[8:1],,1h[8:1],,2h[8:1],,3h[8:1],,4-8[8:1],,,,
{16}1,7,1,7,1,7,1,7,1,7,1,7,
{32}1,2,3,4h[8:1],,,,,
{16}8,2,8,2,8,2,8,2,8,2,8,2,
{32}8,7,6,5h[8:1],,,,,
{16}1b,2,3,4,5,6,7,8,1/6b,2,3,4,5,6,7,8,
{24}5bh[1:0]/1,4,3,2,1,8,7,6,5,4,3,2,1/4bh[1:0],3,2,1,8,7,6,5,4,3,2,1,
{4}8pp2<1-5[2:3]/E7hf[2:3],,,,,,,,
{8}2b-4[8:1]/8b,,2/8-6[8:1],,1-5[8:1]/8,,1,,7-4[8:1],4-8[8:1],7,3,2-5[8:1]*-6[8:1],,2,,
{8}8-4[8:1],,1-3[8:1]/8,,1/7-5[8:1],,7,,1-4[8:1],4V25[4:1],1,6,7,7,
{16}4,3,2,1,
{8}7-5[8:1]/8,,7/1-3[8:1],,1/8-4b[8:1],,
{24}8,B8,C,B4,A4,,
{16}1,,6<1[8:1],,1-5[8:1],2,3,4,5w1b[8:1],,,,Chf[8:1],,,,
{8}3-5[8:1],,3/7-1[8:1],,7/2-6[8:1],,2,8,7<4[8:1],7,3,3h[4:1],
{24}2,1,8,7,6,5,2/4,1,8,7,6,5,
{8}8bx-4[8:1]/4bx,,8/2-6[8:1],,2/7-3[8:1],,7,,
{32}1,,,,7,,,,1b<6[8:1],2,3,4,,,,,
{8}1x-5[8:1],,1x,,
{8}8bx-4[8:1]/4bx,,8/2-6[8:1],,2/7-4[8:1],,7,,
{8}2-5[8:1],7,2,8,8<5[8:1],,
{16}5,4,3,2,
{8}1bx-5[8:1],,1/7-4[8:1],,7/2h[8:1],,
{24}5,6,7,3,2,1,
{8}8bx-4[8:1],,1b,1b,2,2,
{16}3,5,3,5,
{16}4V28[4:1],,,,8,7,6,5,4V68[4:1],,,,8,1,2,3,
{16}E4,E5,E6,E7,E8,E1,E2,E3,E4,E5,E6,E7,E8,E1,E2,E3,
{8}7x-5[8:1],7x,1x-3[8:1],1x,8-4[8:1],8,1,1,
{16}5,6,7,8,1-5[8:1]/2,,,,1x>4[8:1],,,,1x/6,7,8,,
{8}1x-6[8:1],1x,2-5[8:1],2,4<7[8:1],,
{16}8,1,2,3,
{8}4x-8[8:1],,7b,7b,6h,6h,5,5,
{8}2-4[8:1],2,8-6[8:1],8,1-5[8:1],1,8,8,
{16}4,3,2,1,8-4[8:1]/7,,,,8x<5[8:1],,,,8x/3,2,1,,
{8}8x-3[8:1],8x,7-4[8:1],7,5>2[8:1],,
{16}1,8,7,6,
{8}5x-1[8:1],,2b,2b,3h,3h,4,4,
{16}8b,7,6,5,8b,7,6,5,8b,1,2,3,8b,1,2,3,
{16}7b,6,5,4,6b,5,4,3,
{24}5b-1[8:1],4,3,2,1,8,7h[4:1],,,,,,
{16}2b,3,4,5,2b,3,4,5,8b,7,6,5,8b,7,6,5,
{8}2h[16:1],2h[16:1],1h[16:1]/3h[16:1],1h[16:1]/3h[16:1],
{16}4,8,4,8,5b,7b,5b,7b,
{8}4h[16:1],4h[16:1],3h[16:1]/5h[16:1],3h[16:1]/5h[16:1],
{16}2b,6b,2b,6b,1,7,1,7,
{24}2x,8x,2x,8x,2x,8x,3xh,7xh,3xh,7xh,3xh,7xh,4bx,6bx,4bx,6bx,4bx,6bx,3bxh,7bxh,3bxh,7bxh,3bxh,7bxh,
{8}2x,2x-6[8:1],,2/8z4[4:1],,3,3h[4:1],,
{16}2,1,8,7,1,8,7,6,
{24}7,6,5,4,3,2,1,8,7,6,5,4,
{4}8-2-6-4[4:3]*z4b[4:3],,,,,
{32}3bxq8V25[1:2]/7bxq4V61b[1:2],2bx/6bx,1bx/5bx,4bx/8bx,,,,,,,,,,,,,,,,,,,,,,,,,,,,,,,,,,,,,,,,,,,,,,,,,,,,,,,,,,,,,,,,,,,,,,,,,,,,,,,,,,,,,
{32}1b/8b,2b/7b,3b/6b,4b/5b,,,,,,,,,,,,,,,,,,,,,,,,,,,,,
{1},
