&title=ぐしゃぐしゃ
&artist=ロス
&first=0.01
&des=Hwaaaxd
&lv_5=13+
&inote_5=(173){4},,,,,,,,,,,,,,,,{1}1v7>8-4[2:1]*v3>2-6[2:1],
1-5<6-1[2:1]*-5>4-1[2:1],
{16}8-4[2:1]/2-6[2:1],,,,,,,,,,,,,,,7-5[8:1]/3-1[8:1],
,,,,,,,8v3[8:1]/4v7[8:1],,,,,,,,2x/1x,
,,,7,,6/5,,,,1,,3/4,,,,7/8,
,,,2,,3/4,,,,8,,6/5,,,,2/1,
,3,,4,,8/7,,6,,5,,4/3,,,{8}1/2,
3,4,8/7,{16}4,6,3,7,2,8,(175){8}1bpp2[16:3],6,
7,8,1>4[8:1],8,7,6,5pp6[16:3],2,
3,4,5<8[8:1],4,3,2,1bpp2[16:3],6,
7,8,1>4[8:1],8,7,6,5pp6[16:3],2,
3,4,5x<8[8:1],8xqq7[8:1],2,3,4bqq3[16:3],7x,
6,5,4>1[8:1],5,6,7,8qq7[16:3],3,
2,1,8<5[8:1],1,2,3,4bqq3[16:3],7,
6,5,4>1[8:1],5,6,7,8qq7[16:3],3,
2,1,8x<5[8:1],5xv6[8:1],4,3,{4}2>4[8:1],
1p5[8:1],{8}5<7[8:1],4,{4}3>1[8:1],8<6[8:1],
1q5[8:1],{8}5>3[8:1],6,{4}7>1[8:1],2-4[8:1],
1-5[8:1],{8}5-7[8:1],4,{4}3-1[8:1],8-6[8:1],
1-5[8:1],{8}5-3[8:1],6,{4}7qq6[16:3],8>3[8:1],
7pp8[16:3],4>1[8:1],7qq6[16:3],8>3[8:1],
{8}7,6,5pp1[4:3],4,3,2pp8b[8:5],,,,,,,{4}7,
{8}5/3,{16}1,1,
{8}7,{16}2,6,{8}2,{16}5,5,{8}3>1[8:1],4,{4}5/3pp3[16:3],
8<6[8:1],2x>5[8:1]/8pp8[16:3],,5x/7xqq7[16:3],
2>4[8:1],2qq2[16:3]/8x<5[8:1],,5x/3xpp3[16:3],
8<6[8:1],8pp8[16:3]/2x>5[8:1],,7xqq7[16:3],
1>3[8:1],8,{8}4x-6[8:1],6x-1[8:1],,,8-3[8:1],
3-5[8:1],,,1-7[8:1],7-4[8:1],,5,
6,7-3[8:1],,,1,2,3-6[8:1],4,
8-5[8:1],7,3-7[8:1],2,8-4[8:1],1,{16}3x-5[8:1],2x,{8}1x,
{4}3x-8[8:1],3x/7x-4[8:1],7x/1x,{16}2,5,2,5,
{8}2,1<7[8:1],5,1>3[8:1],6,1,{16}7,4,7,4,
{8}7,8>2[8:1],4,8<6[8:1],3,8,{16}3,5,3,5,
{8}3,2-8[8:1],5,2-4[8:1],6,2,{16}7,5,7,5,
{8}7v4[8:1],3,{4}7b-1[8:1],7b,{16}2,5,3,6,
{8}4,7-1[8:1],2,7-5[8:1],4,7,{16}1,4,2,5,
{8}3,4-2[8:1],6,4-8[8:1],7,4,6b,{16}1,7,
{8}1,{16}6,2,{8}6,{16}3,5,{8}4,{16}7,7,{8}5,{16}2,2,
{8}4,{16}6,6,{8}4,{16}8,2,7,3,6,4,{8}5b,5,
3/4,3/4,1/4,2/5,3/6,4/7,8,1s5[16:7],
,7-3[8:1],,,,2,{4}6/1-5[8:1],
1/7>4b[4:1],7/6,{8}5<8[8:1],6/4x,,3,
{4}1-4[8:1]*-6[8:1],1,{8}5,6,{4}7-3[8:1],
7/8,{8}2-4[8:1],1-5[8:1],2<4[4:1],1,{4}2,
8bx,{16}3,7,2,6,{8}1>4[8:1],5,{4}1qq1[4:1],
{8}5,5,,3,2,1/7,,3,
7,4,5/6,7,1,3,{4}5/4>8[8:1],
6,5V31[8:1],7,{32}1x,2x,3x,4x,5x,6x,7x,8x,
1x,2x,3x,4x,5x,6x,7x,8x,1x,2x,3x,4x,5x,6x,7x,8x,{4}1x-6[8:1]*-7[8:1],1-3[8:1]*-4[8:1],
1w5[8:1],1,{8}3,6/5>2[8:1],,7,
{4}1-6[8:1]*-5[8:1],1,{8}4,3,{4}2-6[8:1],
2/1,{8}7-5[8:1],8-4[8:1],7>5[4:1],8,{4}7,
1bx,{16}6,2,7,3,{8}8<5[8:1],4,{4}8pp8[4:1],
{8}4,4,,6,7,8,2/1,4/5,
8/6,4/3,7>2[8:1],2<7[8:1],3,3,4bqq3[16:3],7x,
6,5,4qq2[16:3],7,6,5,4q1[16:3],7,
6,5,4xp8[8:1],8xq4[8:1],6,6,8bxqq7[16:3],3x,
2,1,8qq6[16:3],3,2,1,8q5[16:3],3,
2,1,8xp4[8:1],4xq8[8:1],2,2,4bxqq3[16:3],7x,
6,5,4qq2[16:3],7,6,5,4q1[16:3],7,
6,5,4xp8[8:1],8xq4[8:1],6,6,8bxqq7[16:3],3x,
2,1,8qq6[16:3],3,2,1,8q5[16:3],3,
2,1,8xV64[8:1],4x-7[8:1],2x-6[8:1],3x,{4}2,
8,8,8,8/3,
{8}8,2,8,1<6[8:1],2/8,1/3,,,{4}4,
4,4,4<7[8:1],
4/2,{8}3,3,1,1,{4}8/2,
8,8,8,8,
8,{8}7/4,6/3,5/2,4qq8[1:1]/1qq6b[8:5],,,,,,,,,,,{4}7b,
{16}5,4,5,4,6,4,{8}7,{4}8/3-5[8:1],
{8}3/2,1<6[8:1],,5-8[8:1],4,3,{4}2-5[8:1],
{8}2/1,8<5[8:1],,4-7[8:1],3,2,{4}1-5[8:1],
{8}1/8,7<4[8:1],,3-6[8:1],2,1,{4}8-5[8:1],
{8}8/7,6x-2[8:1],{4}4x,{8}8x,1xpp2[4:1],,,8,
1xpp8[4:1],,,8,1xpp7[8:3],,8,
7,6h[8:3],,,1,2,3/5,4/6<4[16:5],
7/5,6/8,,5,6,7-3[8:1],{16}1x,2,3,4,
{4}5-8[8:1],6/5-2[8:1],5/4,1bpp8[4:3],
,,,5pp4[4:3],
,,,3qq7[4:3],
,,,8h[2:1],
{24},,,,,,1x,2x,{6}3x,{24}4x/7x,3x/6x,{12}2x/5x,,{4}1V35[2:1],
{8},8,,,{4}7V13[2:1],6,
{8},5-2[8:1],6,7,8,1,6b/2b,{16}3,5,
{8}4,{16}6,2,{8}6,{16}1,7,{8}8,{16}6,6,{8}3,{16}1,1,
{8}4,{16}2,5,2,5,3,6,3,7,4,8,{8}5b,5,
4/6,6/4,7/5,6/4,5/3,4/2,{24}1xs5[2:1],2x,{6}3xz7[12:5],
{24},,,,,,,,,,,,,,,{8}2,{4}4/3-8[8:1],
3/7>4b[4:1],7/6,{8}5V38[16:3],6/4x,,7x,
{4}1xw5[8:1],1,{8}8,7,{4}6-2[8:1],
6/5,{8}3-1[8:1],4-8[8:1],3<1[4:1],4,{4}3,
5bx,{16}2,6,3,7,{8}4>1[8:1],8,{4}4pp5[16:5],
{8}8,8,,,1>4[8:1],2/8,,7,
5,6,4/3,2,8,6,{4}4/5<1[8:1],
3,4V68[8:1],2,{32}1x,2x,3x,4x,5x,6x,7x,8x,
1x,2x,3x,4x,5x,6x,7x,8x,1x,2x,3x,4x,5x,6x,7x,8x,{4}1x-6[8:1]*-7[8:1],1b-3[8:1]*-4[8:1],
1bw5[8:1],1b,{8}7,6/4V61[16:3],,2,
{4}8w4[8:1],8,{8}1,2,{4}3-7[8:1],
3/4,{8}6-8[8:1],5-1[8:1],6>8[4:1],5,{4}6,
4bx,{16}7,3,6,2,{8}5<8[8:1],1,{4}5qq6[16:5],
{8}1,1,,8,7,6,{16}4>1[8:1],5,3,5,
{8}4,5,7<4[8:1],8,3-7[8:1],1x,{4}6bxpp1[4:3],
,4,,2pp5[4:3],
,8,,6pp2[4:3],
,4,,1pp5[4:3],
,7,8,1qq4[4:3],
,3,,1pp4[4:3],
,6,,8qq5[4:3],
,3,2,1>4[4:1],
4>1[4:1],{8}5,6,7,8,{4}1bpp5[4:3],
,6,,8qq3[4:3],
,2,,4qq8[4:3],
,7,,6h[2:1],
{8}2,3,4>1[8:1],5,6/4,8,{4}7bV58[16:3],
{8}8,1bV38[16:3],,7,6,5,{4}2b-4[8:1]/4b-8[8:1],
4/2-6[8:1],2/7<4[8:1],7/8,{8}1xqq8[8:3],2,
{2}3h[4:1],{8}1xqq2[12:5]*qq2[12:5],2,{4}3h[4:1],
{8},,1xqq3b[2:1],2,{4}3,4b,
{16}4x,1x,3x,8,2,7,1,6,4,5,3,4,{4}2-6[4:3],
,,,8bh[4:5],
,5,,4,
3,{16}2>5[8:1],1,3,1,{8}2,8,{4}7b-3[8:1],
{8}7/8,2b>5[8:1],,2/1,{4}7b-3b[8:1],{8}7/8,2b>5b[8:1],
,2/1,{16}8x,6x,7x,5,6,4,5,3,{8}4-8[8:1],2-6[8:1],
4<2[4:1],2,{4}4,{16}3x,4x,{8}5x/1x,8,7<4[8:1],
4-7[8:1],7V51[16:3],1,2,3-7[8:1],2,{4}3/8<4[16:3],
8/1,1V75[16:3],1/2,{32}3x,4x,5x,6x,7x,8x,1x,2x,
3x,4x,5x,6x,7x,8x,1x,2x,3x,4x,5x,6x,7x,8x,1x,2x,{4}7x-4[8:1]/3x-8[8:1],7/3,
{24}5v2[8:1]/1v6[8:1],2/6,3/7,4/8,,,{4}1x/5x,{8}7-3[8:1],1>4[8:1],7,1,
{16}5x-1[8:1],6,7,8,{4}1/5<8[8:1],{8}5x/3,4,5q1[8:1],{16}7,6,
{8}5/4,3,2-4[8:1],1-5[8:1],2<4[4:1],1,{4}2,
8bx,{16}2,6,3,7,{8}4>1[8:1],8,{4}4-6[8:1],
{8}8/4,1,2-5[8:1],5-1[8:1],8,7,6,5,
8/7,3/1,5/7>3[8:1],2/3>7b[8:11],4,4h[8:13],{1},{4},,{16}7bw3b[8:1],
5b,1b,3b,,,,,{8}5bpp6[16:3],2x,
3,4,5<8[8:1],4,3,2,1pp2[0.3429##0.2571],6,
7,8,1>4[8:1],8,7,6,5bpp6[16:3],2,
3,4,5<8[8:1],4,3,2,1pp2[16:3],6,
7,8,1x>4[8:1],5,6,7,8bxqq7[16:3],3x,
2,1,8qq6[16:3],3,2,1,8q5[16:3],3,
2,1,8xp4[8:1],4xq8[8:1],2,2,4bxqq3[16:3],7x,
6,5,4qq2[16:3],7,6,5,4q1[16:3],7,
6,5,4xp8[8:1],8xq4[8:1],6,6,,7/5,
2/1,5/3,8/7,3/1-5b[8:1],4/6,1/8,,1/3,
6/7,3/5,8/1,5/7-3b[8:1],4/2,7/8,,,{2}1xh[16:11],
{16}3,4,5,6,
E
