&title=米奇妙妙屋
&artist=/
&first=0.25
&des=JH
&lv_5=13+
&des_5=JH
&inote_5=
(198){4},{1},,{16}2,
2<8>2<8[16:7],,,,,,5,,5,,5,
,,,,,6h[8:3],,5,,,,3,,,{8}4/5,
{16},2b/7b,,,,,,,,,,,,,{8}C,
{32},,,,,,,3,,,{16}4,{32}5,,,6,,,{16}5,{32},4,,,{8}3,2,
1h[4:11],,,,,2h[8:13],,,,,,,,,,,,,,,,,{4}3<6[4:1],
{16},,,,,1,{48},,,,,,,,,,,2/8,,,,,,,,,,{16}3/7,{32},,,,,,,,,,,,,,,3-6[8:3]/2-7[8:3],
{1},{16},,{12}4,
4,4,4,{6}4,
{1},{4},{8}6,
6pp1[4:3],{32},,,,,,,5,,,,,{8}4,
4,3,{4}3,{16},,,2h[8:1],,4h[8:1],,3h[16:3],
,,{8}8h[16:3],{16},5h[16:3],{48},,,,,,{6}6h[6:1],3,{24},,,,{8}3,
4,{12}6,,5,,4,,{4}3,
{32},5/6,{16},,,{64},{192},{48}7/8,,,,,,,,,{24}2/1,{48},,,,,,,,,{16}3>6[2:1]/4p5[2:1],,,,3/4,
,,,,,,,,,,,,,,,,7/4h[32:9],
,,6,{32},6,,,,,,,,,,,,,{16}2/5h[32:9],{32},,,,3,,,3,
,,,,,,,,,,,,,,,,,,,Ch[32:27],{4},,,{16},B2/B3/B7/B6,
{4},,{16},,{24},{12}D7f,
E6f,{48},E5f,,,,,{24}E4f,{48},,,{16}D3f,,,,,,,,,,,,7/4-1[8:1],
{48},,,,,,,,{24}6,,{8}6,{16},,,,,,,2/5-8[8:1],
{32},,,,3,,,3,,,,,,,,,,,,,,,,,,,{16}4h[4:1]/5h[4:1],
{4},{16},,,{24},{48}4qq2[8:1]/5pp7[8:1],,,,,,,,,,4b/5b,Cf,{1},{16},,{48},{4}3/4h[4:1],
1,6/5h[4:1],{12}8,,8,
{6}1,{12}1,2,,2,{4}3h[4:1],4,
{8}6,5,7,7,3,4,2,2h[4:1],
,7,,8/1,{2}8/1w5[8:1],
{8}7x/3x,3-1[8:1],,1v8[8:1],,8-6[8:1],,5-1[8:1],
,4<1[8:3],,,,,,,7/3,
7-4[8:1],,8v3[8:1],,5h[4:1],,4<1v6[8:5],
,,{4}B6f/B7/E7,{8},,,,8/4,
8v5[8:1],,1,,2v5[8:1],,6-8v1-3[8:5],
,4h[8:5],,,,,,,4/8,
8<4[4:1],,4>8[4:1],,8p1[4:1],,4h[8:5],
,,,,{4}8-4[8:1],8b/3b,
{12}3,5,4,6,,7,{6}5,{12}5,8,,8,
{16}1x,2,3,4,8x,7,6,5,{4}1-3[8:1]/4-8[8:1],1x/4x,
7pp6[2:1],{8}1,1h[2:1],,,,5>3-7>1[2:1],
,Cf,,,,,,,2/1,
1/2h[8:3],,3h[8:3],,,{4}4h[4:1],
{8}5,5-2[8:1]/6-1[8:1],,5/6,,3/8,,7,
{4}6/5pp4[8:3],{8}7,7h[2:1],,,,4<2-6[8:5],
,Cf,,,,,,,4x/5x,
,,,,3/4,4/5,6/5h[8:5],
,,{4}7b-2[8:1],{16}7b,,,,,,,8/2,
,,,6/4v1[16:5]*-7-5[16:7],{1},{32}2/4,
,,,,2h[32:19]/4pp8[2:1],{1},{16},{32},5,
,,4,,,5,,,,,,,,,{16}B1f/B2,
,,,,B8f/B7,,,,,,,{8}3,3s7[2:1],
,2h[2:1],{24},,,,,,,,,,,,,,{6}8,
{1}2bpp1[2:1]/6bpp5[2:1],
{4}2x,3/4,8,{12}5/6,,6,
{6}4,{12}4,8,,8,{4}2w6[8:1],A2f,
4/8pp6[2:1],{8}8/4,3h[8:3],,,,2-6[8:1],
,2/7-5-8-4[2:1],,,,,{4}3-1[8:1],
{8}3b/5,6<3[4:1],,6/4h[8:3],,,{4}5x-8[8:1],
{8}5/4,4-1[8:1],,3/4,{4}3,2b/8b,
{6}1/7-4[8:1],{12}7,2-5[8:1],,2,{6}8-4[8:1],{12}8,1-5[8:1],,1,
{6}7<4[8:1],{12}7,2q5[3:1],,,{2}8h[2:1],
{6}4x>1[8:1],{12}4,5<8[8:1],,5,{6}2-6[8:1],{12}2,7-3[8:1],,7,
{16}1h[4:1],,,,,2/8,3/7,4/6,{4}5,C,
{1},{4},,,{16},{32},3qq6qq3[8:11]/6pp3pp6[8:11],
E
