&title=AMAZING MIGHTYYYY!!!! (Cranky Remix)
&artist=Cranky
&first=0
&des=KURENE_SAKAAAA!!!!
&lv_5=14
&inote_5=(155)
{1},
{1}7h[1:1]/1-6[2:1],
{4}1-4[2:1],,8h[4:5],,
{1}7-3[2:1],
{1}5V74[2:1]/3V14[2:1],
{1}2v5[2:1]/8v5[2:1],
{1}4v7[2:1]/4v1[2:1],
{1}8v2[2:1]/8v5[2:1],
{8}1v7[8:3],,,7v4[16:5],,,5w1[4:4],,
{1},
{8},,,,3h[8:1]/5,6,4w8[4:3]/7h[8:1],,
{1},
{8}7-4[8:1],,71,8-3[8:1],,84,5w1[4:4],,
{1},
{8},,3h[4:1]/7h[4:1],,,1h[4:1]/5h[4:1],,,
{1}8pp3[4:7]/4pp7[4:9],
{1},
{8},2h[16:1],,2h[16:1],,1h[16:1],,{32}8h[16:1]/1,2,3,4,
{32}5,4,3,2,1,8,7,6,5,4,3,2,1,8,7,6,{8}5v2[8:1]*v8[8:1],37,5b,,
{16}37,,54,,6h[8:1],,8,7h[8:1],,1,8h[8:1],,2,1h[8:1],,2,
{16}38,,54,,3h[8:1],,5,2h[8:1],,6,1h[8:1],,7,8,6,5,
{16}74,,81,,7h[8:1],,5,6h[8:1],,4,5h[8:1],,3,4h[8:1],,3,
{16}25,,81,,2h[8:1],,8,3h[8:1],,7,4h[8:1],,6,5,7,8,
{16}61,,45,,3h[8:1],,1,2h[8:1],,8,1h[8:1],,7,8h[8:1],,7,
{16}61,,45,,6h[8:1],,4,7h[8:1],,3,8h[8:1],,2,1,3,4,
{16}25,,18,,2h[8:1],,4,3h[8:1],,5,4h[8:1],,6,5h[8:1],,6,
{16}74,,18,,7h[8:1],,1,6h[8:1],,2,5h[8:1],,3,4,2,1,
{16}3-1[8:1],,1-5[8:1],,5-3[8:1],5,,7,7-3[8:1],,8,,7,,2,1,
{16}8-4[8:1],,4V26[4:1],,5,,6<1[4:1],6q3[16:3],,,,,,,,,
{16}6-8[8:1],,8-4[8:1],,4-6[8:1],4,,2,2-6[8:1],,1,,2,,7,8,
{16}1-5[8:1],,5V73[4:1],,4,,3>8[4:1],3p6[16:3],,,,,,,,,
{16}4-2[8:1],,2-8[8:1],,8-4[8:1],8,,6,6-2[8:1],,7,,6,,3,4,
{16}5v2[8:1],,2V86[4:1],,8V64[4:1],,6V42[4:1],6s2[16:3],,,,,,,,,
{16}5-7[8:1],,7-1[8:1],,1-5[8:1],1,,3,3-7[8:1],,2,,3,,6,5,
{8}4-7[8:1],8v3[8:1],4,8,1-7[8:1],1-3[8:1],1qq5[8:3],,
{2},{32}1,2,3,4,5,6,7,8,1,2,3,4,5,6,7,8,
{16}1h[8:3]/5h[16:1],,,3h[16:1],,,4,2,5,3,6,4,{4}7b/3b,
{16}1,28,3h[4:3]/7h[8:1],,,5h[8:1],,,1h[8:1],,,4h[8:1],,,2,1,
{16}8,7h[16:13]/5h[8:1],,,3h[8:1],,,1h[8:1],,,8,,6,,8,,
{16}8,71,6h[4:3]/2h[8:1],,,4h[8:1],,,8h[8:1],,,5h[8:1],,,7,8,
{16}1,2h[16:13]/4h[8:1],,,6h[8:1],,,8h[8:1],,,1,,4,,6,,
{16}26,37,4h[16:11]/8h[8:1],,,6h[8:1],,,3h[8:1],,,1h[8:1],,,8,7,
{16}6,5h[16:13]/1h[8:1],,,3h[8:1],,,6h[8:1],,,1,,3,,1,,
{16}51,62,7h[8:1]/3h[8:1],,,1h[8:1]/5h[8:1],,,2h[8:1]/8h[8:1],,,4h[8:1]/6h[8:1],,,37,,
{16}1,28,,6,57,,3,24,,,18,,1,8,2,7,
{16}4,5,3h[8:1],,4,2h[8:1],,5,1h[8:1],,6,8h[8:1],,7,1,6,
{16}2,5h[8:1],,3,6h[8:1],,4,7h[8:1],,5,57,,28,,35,,
{16}5,4,6h[8:1],,5,7h[8:1],,4,8h[8:1],,3,1h[8:1],,2,8,3,
{16}7,4h[8:1],,6,3h[8:1],,5,2h[8:1],,4,24,,71,,64,,
{16}3,2,1h[8:1],,5,6h[8:1],,3,2h[8:1],,7,8h[8:1],,1,2,3,
{16}4,5h[8:1],,1,8h[8:1],,3,4h[8:1],,2,24,,57,,28,,
{16}7,6,5h[8:1],,1,2h[8:1],,7,6h[8:1],,3,4h[8:1],,5,45,,
{16}34,2b/5b,,56,4b/7b,,1b/8bv5[16:3],2bv5[8:1]/7b,{2},
{8}8<5[8:1],4,8>3[8:1],4,8-4[8:1],4,8,2pp6[8:4],
{8},5V71[4:1],5,,,,,1>4[8:1],
{8}5,1<6[8:1],5,1-5[8:1],5,1,6,7qq3[2:1],
{8},4V28[4:1],4,,,,5,2-6[8:1]/6,
{8},27,8w4[8:1],,8,,2,7-3[8:1]/3,
{8},74,5w1[8:1],,5,,46,3h[4:1]/7,
{8},1-3[8:1],8-4[8:1],1pp5[2:1],8,,6,7-3[8:1],
{8},7,,5h[4:1],{16}3,2,1,8,7,6,5,4,
{8}3/1-7[8:1],4,1-3[8:1],5,1-5[8:1],6,1,7q2[8:4],
{8},1V36[4:1],1,,,,,8-2[8:1],
{8}5,8-6[8:1],4,8-4[8:1],3,8,2,1q4[2:1],
{8},8V63[4:1],8,,,,25,1-5[8:1]/6,
{8},1/6V82[4:1],8-4[8:1],,,,35,2-6[8:1]/6,
{8},27,8,1,1-6[8:1],1q4[4:3],1,,
{8},,,4w8[4:1],,,,,
{32}6b/2b,5,{16}4h[16:5],,,,,{32}1b,2,{16}3h[16:5],,,,,{32}8b,7,{16}6h[16:3],,,
{16}1b,6,5,6,2,6,5,6,3,6,5,6,4,6,5,6,
{4}5w1[8:1],,{8}6h[8:1]/4b,3,6b/2h[8:1],7,
{16}1b,8,2,7,1,8,3,6,2,7,4,5,3,6,4,5,
{32}2b,3,{16}4h[16:5],,,,,{32}8b,7,{16}6h[16:5],,,,,{32}1b,2,{16}3h[16:3],,,
{32}8b,7,6,5,4,3,2,1,8,7,6,5,4,3,2,1,8,7,6,5,4,3,2,1,8,7,6,5,4,3,2,1,{4}8,
{32}1b,2,3,4,{16}5h[4:1]/7b,,,,{32}8b,7,6,5,{16}4h[4:1]/2b,,,,
{32}1b,8,7,6,5,4,3,2,1,8,7,6,5,4,3,2,1,8,7,6,5,4,3,2,1,8,7,6,51,48,37,26,
{16}1h[8:1]/5h[8:1],,,8h[8:1]/4h[8:1],,,3h[24:2]/7h[24:2],,{24}48,51,26,37,48,51,{4}2b/6b,
{8}2q6[8:1],2,1-5[8:1],1,8-4[8:1],8,7p3[8:1],7,
{8}8-4[8:1],8,1-5[8:1],1,2q6[8:1],2,7-3[8:1],8,
{8},1w5[8:1],2,,,37,2-6[8:1]/8,1,,8w4[8:1],7,,,,1/8,2/7,
{8}1-6[8:1]/6-1[8:1],6/1-4[8:1],61,,5>2[8:1]*<8[8:1],5,5,,
{8}3-8[8:1]/8-3[8:1],3/8-5[8:1],38,,4>1[8:1]*<7[8:1],4,4,,
{8}4-8[8:1]/8-4[8:1],8/4>1[8:1],48,,8-4[8:1],1pp5[4:3]/7,8,1b,
{8},,7h[4:2],,,,4,3,
{8}2-6[8:1],1-5[8:1],2,1,8-4[8:1],17,28,3,
{8}7-3[8:1],8-4[8:1],7,8,1-5[8:1],82,17,7V51[4:1],
{8},1-7[8:1],1V37[4:1],,,7,6,5V73[4:1],
{8},3V51[4:1],3-1[8:1],,,,7,8,
{8}1-6[8:1],2-5[8:1],1,2,7-3[8:1],46,37,1,
{8}8-3[8:1],7-4[8:1],8,7,2-6[8:1],53,62,8V62[4:1],
{8},2-4[8:1],2V84[4:1],,,4>5[16:5],5,6h[16:9],
{4},{32}4,3,2,1,8,7,,5,{4}4bv1[8:1]*v7[8:1],4b,
{16}2,3,4,,4,5,,5,7,,7,5,,5,4,,
{16}4,2,,2,4,,4,5,,5,8,,27,,46,,
{16}4,3,2,,2,1,,1,7,,7,1,,1,2,,
{16}2,4,,4,2,,2,1,,1,5,,36,,17,,
{16}7,6,5,,5,4,,4,2,,2,4,,4,5,,
{16}5,7,,7,5,,5,4,,4,1,,72,,53,,
{16}5,6,7,,7,8,,8,2,,2,8,,8,7,,
{16}7,68,,2,13,,45,36,,,18,,1,8,2,7,
{16}3,4,2,,2,8,,8,6,,6,4,,4,2,,
{16}2,4,,4,6,,6,8,,8,2,,13,,47,,
{16}6,5,7,,7,1,,1,3,,3,5,,5,7,,
{16}7,5,,5,3,,3,1,,1,7,,86,,52,,
{16}3,4,2h[8:1],,4,4h[8:1],,8,8h[8:1],,6,6h[8:1],,4,4h[8:1],,
{16}8,8h[8:1],,2,2h[8:1],,4,4h[8:1],,6,64,,25,,17,,
{16}6,5,7h[8:1],,5,5h[8:1],,1,1h[8:1],,3,3h[8:1],,5,5h[8:1],,
{16}1,2b/4b,,48,5b/7b,,4b,8b,{32}5,4,3,2,1,8,7,6,{4}5bv2[8:1]*v8[8:1],
{1}5bp2[4:7],
