&title=プルメリア。
&artist=A4。; #kzn; 可不; ci flower; 裏命
&first=0.43
&des=Tian7?!
&lv_5=13
&inote_5=(140)
{2}3h[2:1]/4,6h[2:1],1h[4:3],
{4},7,3h[2:1]/4,,
{4}5h[4:1],7h[4:1],1h[2:1],,
{8}6>3[8:1],,4-8[8:1],,
{8}2b,,,{16}2,5,{8}3-8[8:1],4,5,,
{8}5h[8:2]/7h[8:2],,,8-4[8:1],4-8[8:1],,,,
{8}3h[8:4],,,8,7,{16}6-2[8:1],2h[16:3],{8},,
{8}4h[8:2],,,2,1>4[8:1],{16},6,,8<5[16:1],,,
{8}1b/8,,{16}3,4,2,4,{8},{16}1-5[8:1],5h[16:3],,,,,
{8}6h[8:2],,4,5/3,2h[8:2]/4,,1-3[8:1],,
{8}1/8h[8:2],,{16}4,6,3,6,{8},{16}3-7[8:1],7h[16:3],,,,,
{8}5h[8:2],,,{16},4-2[8:1],5,3,,7,,,,,
{8}1>4[8:4],,,5,,6,6-1[8:1],,
{8}2>5[8:4],,,6,,7,7-2[8:1],,
{8}6pp4[8:4],,,,,3,2,,
{8}4pp6[8:2]*qq2[8:2],,,,,4/5h[8:2],3,2,
{8}1/7h[8:3],,6,4-7[8:1],,3,3h[8:2],,
{8}6h[8:3],,5,8V24[8:2],,7,5h[8:2],,
{8}2h[8:2],,8-3[8:1],3-5[8:1],,5,7,,
{8}1,7,7/8,6/2,,1h[8:3]/8,7,6,
{8}5,{16},3,{8}4,2/5h[4:1],,1,1-7[8:1],,
{8}3,{16},4,{8}6,3h[4:1]/7,,5,5-2[8:1],,
{8}7,{16},7,{8}1,2/6h[4:1],,8,8<5[8:1],,
{8}2,{16},3,{8}4,2V86[8:2]/5q1[8:2],,,,,
{8}8/2,{16},3,{8}4,2h[4:1]/5,,8,8-2[8:1],,
{8}6,{16},5,{8}3,2/6h[4:1],,8,2,4,
{8}5-7[8:1],4,5,2,1-3[8:1]*-4[8:1],{16}7,7,{8}1,,
{16}2/5,,3,4,,3/5,,3/5h[16:7],,,6,,7,,8,,
{32}1b-5[8:1]/5b-1[8:1],2/6,3/7,4/8,{8},,,2-5[8:1],5-1[8:1],2,6,
{8}7,7-5[8:1],4,7,3-1[8:1],8-5[8:1],3,8,
{8}1-3[8:1],,1/6,8,1-3[8:1]/6,,1/6,8,
{8}2-5[8:1],5-2[8:1],2-7[8:1],7V13[8:2],,,6,7,
{8}8-4[8:1],,4,2,1-4[8:1]/5,,7,6,
{8}5-2[8:1],,5/6,6h[8:2],,1,2/3,3h[8:2]/4,
{8},7,6/5,5/4,4-2[8:1]/3,,4-7[8:1]/5,,
{8}3/4-2[8:1],,8-2[8:1]/4-6[8:1],,4b-1[8:1]/8b-5[8:1],,4/8,,
{8}8b>3[8:1]*q4[8:1],,8,,7-4[8:1],4-6[8:1],7,3,
{8}2,1-3[8:1],7,1,6-2[8:1],2-4[8:1],6,1,
{8}8pp5[8:3],,,6qq7[8:3],6,,,,
{8}1-4[8:1],4V28[8:2],1b,8bv3[16:3],,,6,5,
{8}4q8[8:2],,2,4,5p1[8:2],,1p5[8:2],7,
{8}5p4[8:3],,6,,,6-2[8:1],7,8b,
{8},1-5[8:1]/2v5[8:1],3/8,1b/2b,,4-7[8:1],5qq4[8:6],6bqq4[8:5],
{8},,,,,,,4/5,
{16}3/6,,4,5,3,,3,5,1-5[8:1],,4,4,1,,,,
{16}6,4,6,4,6h[8:1],,5-7[8:1],,4,,5,,3,4,2,,
{16}1h[8:1]/4h[8:1],,,,1h[8:1]/4h[8:1],,,,2,5,3,6,4-7[8:1],,,,
{16}3h[8:1]/4,,,,3h[8:1]/8h[8:1],,,,1h[8:1],,2h[8:1],,3h[8:1],,4h[8:1],,
{16}6-8[8:1],,,,6/5V71[8:2],,,,,2,3,4,5,,,,
{16}5-2[8:1]/7-4[8:1],,,,5/7,,,,1-7[8:1]/3-5[8:1],,2,,1/3,,,,
{16}4-7[8:1]/6,,,,3/4,,,2h[8:1],,7,1,,2/6,,,6,
{16}2,5,2,5,3,6,3,6,4,3,2,1,5,6,7,8,
{16}1-6[8:1]/2h[8:2],,,,,,,,7-5[8:1]/8-4[8:1],,1/2,,,,,3,
{16}3-8[8:1],,5,,34,,6,6-1[8:1],,3,,4/6,,2,3,4,
{16}5h[8:2]/8-4[8:1],,,,,,,,3-1[8:1]*-8[8:1],,5,,3,,,2-4[8:1],
{16}7,,7,2,,1,5,7,5v6[8:2],,,,1,,2,,
{12}3-1[8:1],4,2h[12:3],3,,,7-5[8:1],8,6h[12:3],7,,,
{16}4h[8:1],,2h[8:1],,8h[8:1],,5-2[8:1],,,,,,1,,8,,
{16}7-5[8:1],,,,8,,2,,3>8[8:1],,,,8,,7,,
{16}6-8[8:1],,6,,4-2[8:1],,4,,1s5[8:1]*v6[8:1],,,,1,,,,
{16}2/8,,,,1-5[8:1]/7-5[8:1],,8,,,,,2,4h[8:2],,5-2[8:1],,
{16}3,,6,6,,1/7,,2/6,,2,4,3,5-2[8:1],,,,
{16}6/5,,,,3-1[8:1]/5-1[8:1],,4,,,,,,4/6,,3/5,3/5,
{16},2,4,3,5,2,,8,7,6,4/5,3,2,,6,5,
{16}8V64[8:2],,8,,1,,2,,3>8[8:2],,3,,4,,5,,
{16}6-3[8:1],,6,,7,,8,,1-7[8:1],,1,,2,,3,,
{16}4-6[8:1],,4,,3,,2,,1-3[8:1],,1,,8,,7,,
{16}7/4,,6,5,,5/3,,5/2h[16:7],,,1,,8,,7,,
{32}6bv3[8:1]/2bv7[8:1],7/3,8/4,5/1,{8},2/6,,7-4[8:1],4V68[8:2],7,3,
{8}2,2-4[8:1],1,2,6-8[8:1],5-2[8:1],6,5,
{8}8-5[8:1],,8/4,2,8-5[8:1]/4,,8/4,2,
{8}7-4[8:1],4-7[8:1],7-2[8:1],2V85[8:2],,,3,2,
{8}1-5[8:1],,1/5,7,8-5[8:1]/4,,2/8,3,
{8}4-7[8:1],,4/3,1h[8:2],,8,7/5,6h[8:2]/4,
{8},1,3/5,4/6,5-8[8:1]/7,,5-2[8:1]/4,,
{8}6/5-7[8:1],,1<7[8:1]/5>3[8:1],,5b-8[8:1]/1b-4[8:1],,5/1,,
{8}2bV85[16:3]/1bV75[16:3],,1/2,,3-5[8:1],5v2[8:1],3,6,
{8}7,1,7-5[8:1],4,7-4[8:1],3,7-3[8:1],2,
{8}7pp4[8:3],,,3pp2[8:3],3,,,7h[8:2],
{8},8b-4[8:1],2b-5[8:1],8b,2b,,6,7,
{8}8p4[8:2]/5,,5,3,1q5[8:2],,5V71[8:2],7,
{8}1pp1[8:2],,5,,,7-5[8:1]*-4[8:1],8,7b,,1-4[8:1]*-5[8:1],3,1b,,8-4[8:1]*-4[8:1],2/6,8bw4[8:4],
{2},{8},,,4/5,
{16}3,6,3,6,2,5,2,5,1-5[8:1],,4,4,1,,,,
{16}3/6,,4,5,4/6,,5-7[8:1],,4,,5,,3,4,2,,
{16}1/4,,2,2,,5,5/3,,3,6,4,7,5-2[8:1],,,,
{16}6h[8:1]/5,,,,7V53[8:2],,3-1[8:2],,3-8[8:1],,,,,,,,
{16}6-2[8:1]/2-5[8:1],,,,2/6,,,,4,7,3,6,2-8[8:1],,,,
{16}2-5[8:1]/4-7[8:1],,,,2/4,,,,4-1[8:1]/6-1[8:1],,3/7,,4/6,,,,
{16}8V25[8:1]*-4[8:1],,,,8,,,6/3,,5,4,,3/7h[16:3],,,2,
{16}8,7,6,5,3,2,1,8,4,5,6,7,2,3,4,5,
{16}1-6[8:1],,,,,,2-5[8:1],,5-2[8:1],,7,7,,,,,
{16}8-2[8:1],,,,7/8,,6,,5-2[8:1],,6,5h[16:3],,,,,
{16}4-7[8:1],,,,3/4,,1>4[8:1],,4>1[8:1],,6,6,,,,,
{16}8h[8:4],,7,,6,,5,,4,,7-3[8:1],3h[16:3],,,,,
{16}4h[8:2],,,,6h[8:2],,7,,8,,1-5[8:1],5h[16:3],,,,,
{16}6h[8:2],,,,2-4[8:1],,2,,8-6[8:1],,8,,1V75[8:1],,,,
{16}1/2h[8:4],,,,4,,5,,6,,7-3[8:1],3h[16:3],,,,,
{16}2h[8:2],,,,,,,5-7[8:1],4,6,,4>5[16:15],,,,,
{2},{8}4>1[8:1],,
E
