&title=La'qryma of the Wasteland
&artist=DJ Noriken
&first=0.02
&lv_5=14
&des_5=RoxySuki
&inote_5=
(168){4},{8},,,,,,,,,,,,,,8b/2b,
{16}1,1,1,1,{8}1,{16}6,5,,3,{4}4,
{2}Cfh[2:7],B1/B8,
,B2/B3,
,B4/B5,
,B7/B6,
{4}4/8,4/8,2/6,6/2,
{8}3/4,2,1/8,7,6/4,3,2/8,7,
3h[8:1],{24}1x,8,7,{8}6h[8:1],{24}8x,1,2,{8}3h[8:1],{24}7x,6,5,{8}4h[8:1],{24}2x,3,4,
{1}5qq2[2:1]*pp8[2:1],
{4}1h[8:1]/7-4[8:1],1h[8:1],2h[8:1]/5<8[8:1],2h[8:1],
3h[8:1]/8-6[8:1],3h[8:1],4h[8:1]/5p1[8:1],4h[8:1],
8h[8:1]/2-5[8:1],8h[8:1],7h[8:1]/4>1[8:1],7h[8:1],
6h[8:1]/1-3[8:1],6h[8:1],5h[8:1]/4q8[8:1],5h[8:1],
1h[8:1]/7p3[8:1],7/1h[8:1],2h[8:1]/4<7[8:1],4/2h[8:1],
3h[8:1]/1-5[8:1],1/3h[8:1],4h[8:1]/6-8[8:1],6/4h[8:1],
8h[8:1]/2q6[8:1],2/8h[8:1],7h[8:1]/5-2[8:1],5/7h[8:1],
{2}5<8[8:1]/1>4[8:1],4qq2[8:1]/8qq6[8:1],
{4}3b-1[8:1]/7b-5[8:1],3/7,{8}1>4[8:1],5,1,6,
5-2[8:1],7,5,8,1/2,3,2/1,8,
4>1[8:1],8,4,7,8-3[8:1],6,8,5,
4/3,2,3/4,5,{2}6>4[8:1]/2>4[8:1],
{4}7h[8:1]/1h[8:1],8h[8:1]/2h[8:1],3h[4:1]/1-5[8:1],1b,
2h[8:1]/8h[8:1],1h[8:1]/7h[8:1],6h[4:1]/8-4[8:1],8b,
{16}3,5,3,5,2,6,2,6,1h[16:3],,,8h[16:5],,,{8}7,
{2}7p2[8:1],8w4[8:1],
{1}6/2p8<1[8:27],
{4},,6,{8}6,6h[2:1],
,,,,,,,,{1}8h[2:1],
2/7q1>8b[8:27],
{4},,3,{8}3,3h[2:1],
,,,,,,,,1h[4:1],
{16},,,,B1,B2,B3,B4,{8}B5,{4}Cf,
8/2,{16}3h[16:3],,,1,{8}2,7,{4}8/6,
{8}2,2,{16}3/4,,,6,{8}5>2[8:1],7,{4}5,
1/7,{16}6h[16:3],,,8,{8}7,2,{4}1/3,
{8}7,7,{16}6/5,,,3,{8}4<7[8:1],2,{4}4,
3/8,{16}2h[16:3],,,4,{8}3,6,{4}5/7,
{8}3,3,{16}2/1,,,7,{8}8>3[8:1],6,{4}8,
4/6,{16}7h[16:3],,,5,{8}6,3,{4}2-5[8:1]/4pp8[4:3],
{1}2b/4b,
Cf,
{2},,,,,,,,,,,,,7b/2b,
{4}4/B8,3/B7,2/B6,1/B5,
8/B4,7/B3,6/B2,5/B1,
{8}2/B5,2,2/B7,2,3/B6,3,3/B8,3,
7/B4,7,7/B2,7,6/B3,6,6/B1,6,
{16}2x,4,3,4,3,4,3,4,2x,5,4,5,4,5,4,5,
3x,7,5,6,5,6,5,6,3x,7,4,5,4,5,4,5,
{8}3h[8:1],{24}1bx,8,7,{8}6h[8:1],{24}8bx,1,2,{8}3h[8:1],{24}7bx,6,5,{8}4h[8:1],{24}2bx,3,4,
{1}5qq2b[2:1]*pp8b[2:1],
{8}2/1,4/6,8/7h[8:1],{16}1,1,4,2,8,5,7,2,4,3,
5/2,,{8}8/7,2/1h[8:1],{16}4,4,7,8,5,2,1,3,6,5,
{8}4/7,8/2,1/6h[8:1],{16}8,8,4,2,1,5,7,2,4,3,
{8}5/2,1/7,3/8h[16:3],{16}5,5,6,2,4,3,8,1,7,8,
6/1-6[8:1],,,2,{8}1,3,4/6>3[8:1],{16}7,8,{8}6,1,
{16}2-5[8:1],,,1,{8}2,8,5/7>2[8:1],{16}6,5,{8}7,3,
2/4,3/5,4/6,{16}7,8,,2/1,,3/4,,6,5,6,
4/7h[16:3],,,8h[16:3],,,{8}1h[4:1],{16}2,3,4,5,3,4,5,6,
{8}7/1b-5[8:1],4/3,1/6,{16}8,8,5,7,1,4,2,7,5,6,
7/4b>1[0.3571##0.1786],,{8}8/2,4/6,{16}5,5,2,1,4,7,8,6,3,4,
{8}5/2b-5[8:1],7/8,2/1,{16}1,1,5,7,8,4,2,7,5,6,
{8}4b/7b,2b/1b,{16}6b/8b,6b/8b,,3b/1b,,2b/4b,,5b/7b,,2,1,2,
{8}7-3[8:1],7,6-2[8:1],6,5-1[8:1],5,3,{16}2,2,
{8}7-3[8:1],7,8-4[8:1],8,1-5[8:1],1,2,{16}4,4,
6,6,8,8,2,2,4,4,{32}7b,E7,B6,B5,,,1b,E2,B2,B3,,,{8}8b/4b,
{1}6b/2bqq5[2:1],
{8}8-4[8:1],2,8>2[8:1],3,8<6[8:1],4,{4}8/3>8[8:1],
3/8>3[8:1],7,{8}6h[8:3],4,3,2,
1-5[8:1],7,1<7[8:1],6,1>3[8:1],5,{4}1/6<1[8:1],
6/1<6[8:1],2,{8}3h[8:3],5,6,7,
1/8-4[8:1],2,3/8>2[8:1],3,4/8<6[8:1],4,{4}8-4[8:1]/3>1[8:1],
8<6[8:1]/3-5[8:1],8/3,{8}6h[8:3],4,3,2,
8/1-5[8:1],7,6/1<7[8:1],6,5/1>3[8:1],5,{4}1-5[8:1]/6<8[8:1],
1>3[8:1]/6-4[8:1],1/6,{8}3h[8:3],5,6,7,
8-4[8:1],{16}2,2,{8}8>2[8:1],{16}3,3,{8}8<6[8:1],{16}4,4,{4}8-4[8:1],
8/4<7[8:1],2,{8}7h[8:3],4,3,2,
1-5[8:1],{16}7,7,{8}1<7[8:1],{16}6,6,{8}1>3[8:1],{16}5,5,{4}1-5[8:1],
1/5>2[8:1],7,{8}2h[8:3],5,6,7,
{4}1/8,2/3,4/5,6/7,
{8}1/2,2,4/2,4,5/4,5,7/5,7,
{4}8x/7x-3[8:1],{8}1,2x-5[8:1],,8,{4}7xh[4:1],
{16}3,4,2,4,{8}3,{16}6,5,7,5,{8}6,{4}8b/1b,
{8}7/3-8[8:1],4,5,6,7/3-8[8:1],4,5,6,
7/3>8[8:1],4,5,6>3[8:1],7,8,1,1,
2/6-1[8:1],5,4,3,2/6-1[8:1],5,4,3,
2/6<1[8:1],5,4,3,{2}6/2w6[8:1],
{4}4h[8:1]/8h[8:1],4h[8:1]/8h[8:1],2h[8:1]/6h[8:1],2h[8:1]/6h[8:1],
{16}3b,5,4,5,4,5,4,5,3b,7,5,6,5,6,5,6,
{8}3h[8:1],{24}1b,8,7,{8}6h[8:1],{24}8b,1,2,{8}3h[8:1],{24}7b,6,5,{8}4h[8:1],{24}2b,3,4,
{8}5/6,8/1,{16}3,4,{8}3,{16}7,8,,2,{8}1w5[8:1],7/3,
E
&lv_6=1
&des_6=
&inote_6=
(125){4},
E
