&title=とうほう☆ワンダーランド feat.初音ミク × 鏡音リン × 鏡音レン × KAITO
&artist=COOL&CREATE
&first=0
&des_5=レイラ·プリズムリバー
&lv_5=13+
&inote_5=(200)
{1},,
{1}2^8-4^6[2:3],7h[4:3],7pp5[2:3],3h[4:3],{2}2h[2:1]/8,4h[2:1],6h[2:1],8h[2:1],
{32}1,2x-4v5-7[32:39]b/7x,3x/6x,4x/5x,
{8},{4},,,,,,,
{1}E1/E2/E3/E4/E5/E6/E7/E8/B1/B2/B3/B4/B5/B6/B7/B8/Cf,1>8z4[2:3]/8<1s5[2:3],,
{2}2h[4:1]/B5/B6/E6f,8h[4:1]/B3/B4/E4f,{8},2/6,7/3,8/4,1b^6[8:1]/5b^2[8:1],,,,
{4}1b/7x-4[8:1],2b/7,6^1[8:1]/3b,6/4b,5-3[8:1]*-7[8:1],5w1[8:1],5,Cf,2b/7x-4[8:1],2b/7,6^1[8:1]/3b,6/4b,5-3[8:1]*-7[8:1],5w1[8:1],5,Cf,3b/7x-4[8:1],2b/7,6^1[8:1]/3b,6/4b,C/2,B3/B2/7,5-3[8:1]*-7[8:1],5<4[4:3]*>6[4:3],D5/D6/A5f,,,,
{16}3,4,,6,5,,3,,{8}2/8,2/8,3/7,4/6,
{4}5,5/3,5/2-8[8:1],5,6/7-1-5-3[2:1],6,6,6,6^8[8:1],4^2[8:1],5^7[8:1],4,5pp6[4:1]/4qq3[4:1],,,4x,4/5,4/6,4/7,4/8^6-3^2-7[8:5],4,4,4,3,Cf/B7,
{8}2,2,4,4v7[8:1],,3,,4,8^5[8:1]/4^1[8:1],,,,B5/B1/B2,,
{8}6h[8:3],7,8,1h[8:3],8,7,6h[8:3],7,8,1h[4:1],8,7,2-5[8:1]/5-8[8:1],,,,3xh[8:3],2,1,8h[8:3],1,2,3,4,5x/7x,8,5x/7x,8,1bx-5[8:1]/2bx-5[8:1],,,,
{8}7^4[8:1],7,8,1,2^5[8:1],2,1,,1x-5[8:1]b/8x-4[8:1]b,,1b/8b,,,1<2[8:5],8,7h[2:1],,,,,A6h[1:1]/B6h[1:1],,8>4p8[2:1],,,,,,,,1/7,,
{8}4-8[8:1],,4x,,2v5[8:1]/6v3[8:1],,2x/6x,,4qq3[4:1]*pp5[4:1],,,,{8},4x,4x,,
{4}2^4-1-6^8[2:1],5h[2:1],,,5pp6[4:1]*qq4[4:1],,{8},5x,5x,,
{4}7^5-1[4:1]b,1^3-7[4:1]b,3,5,{8}4qq3[4:1]*pp5[4:1],,,,,4x,3x-7-4-1-6-3[8:7],,
{4}8h[4:3],,,,5xpp6[4:1]*qq4[4:1],,{8},5x,5x,,
{8}6b/4b,4,3,3,2,2,1,1,8b/2b,8,7,7,6,6,5,5,6/4,6,3/5,3,6/4,6,3/5,3,{16}7,7,,2,2,,8,,1bw5[8:1],,,,,,,,
{8}3v8[8:1]/7^4[8:1],,3/7-1-3-5[8:3],,6x,6xpp5[8:3],,6,,3,4w8[8:1],,4b,,2h[4:1]/6,,3,4,3/5-1[8:1],6,7,,7,7qq4[2:1],,8,8^3[8:1],,,,5,,
{8}7^4[8:1]/4^1[8:1],,4-8[8:1]/7,,2,2-6[8:1],,7-3[8:1]/2,,1,1-4[8:1]*-6[8:1],,1b,,3x,,6/8,7,8,1/3,2,1,6/8,7,1b/8b,,4b/5b,,2b/7b,,Cf/B4/B5,,
{8}6v1[8:1]/2^5[8:1],,6/2-8-6-4[8:3],,3x,3xqq4[8:3],,3,,6,5w1[8:1],,5b,,7h[4:1]/3,,6,5,6/4^7[8:1],3,2,1,8,1h[4:1]/7,,4,2/5,3/6,4-1[8:1]/7-4[8:1],,4b/7b,,
{4}2-5[8:1]b/6-1b[8:1]b,2/6,{8}3/7,3-7[8:1]b/7,,5-1[8:1]b/3,,5/4,,2q7[4:1]b*>7[4:1]b,2b,,,,
{8}8x,1,2x/8,3,4/5,6,7x/1x,6x/2x,{16}3,5,3,5,2,6,2,6,1-5[8:1],7,1,7,1b,,,,
{16}4,3,2,1,4,5,6,7,1,2,3,4,8,7,6,5,4/3b,2,1,8,5b,6,7,8,1/2b,3,4,5,7b,6,5,4,
{2}3h[32:31]/1x,7h[32:15],{32}4x/8xqq5[8:9],1xpp4[32:35]/5x,2x/6x,7x/3x,,,,,
{1},{4},{16},,1,8,2b/7b,,,,
{4}1b/7x-4[8:1]b,2b/7,6^1[8:1]b/3b,6/4b,5-3[8:1]*-7[8:1],5w1[8:1],5,Cf,2b/7x-4[8:1]b,2b/7,6^1[8:1]b/3b,6/4b,5-3[8:1]*-7[8:1],5w1[8:1],5,Cf,3b/7x-4[8:1]b,2b/7,6^1[8:1]b/3b,6/4b,5-3[8:1]*-7[8:1],5w1[8:1],5,Cf,
{32}1x,2,3,4,5,6,7,8,1,2,3,4,5,6,7,8,1,2,3,4,5,6,7,8,1b/5b,,,,,,,,
{4}8-2[8:1]*-6[8:1],8w4[8:1],8b,Cf,
{8}1b/7x-4[8:1]b,1,2b/7,,6^1[8:1]b/3b,3,6/4b,,5-3[8:1]*-7[8:1],,5w1[8:1],,5,,Cf,,2b/7x-4[8:1]b,2,2b/7,,6^1[8:1]b/3b,3,6/4b,,5-3[8:1]*-7[8:1],,5w1[8:1],,5,,Cf,,3b/7x-4[8:1]b,3,2b/7,,6^1[8:1]b/3b,3,6/4b,,Cf/2,,B3f/B2/7,,5-3[8:1]*-7[8:1],,5<4[4:3]*>6[4:3],,D5/D6/A5f,,,,,,,,
{16}2,4,,7,5,,1,,{8}2/8,2/8,3/7,4/6,{1}5bv2<4[2:1],
{8}2x/4x,7x/5x,1x/3x,8h[8:3]/6x,,{24}3,4,5,6b,,,,,,
E
