&title=Roar of Chronos
&artist=BEMANI Sound Team "KE!JU"
&first=0.01
&des_5=Χρόνος
&lv_5=14+
&des=Χρόνος
&inote_5=(175){1},,
{8}3qq8[4:2]/Cf,,4,,5,5,,6,
6q1[4:2],,1,,2,2,,4,
4>1[4:1],,5,,6,6,,8h[8:7],
B1,,B7,,B3,,B5,,
{8}6pp1[4:2]/E5f,,1,,2,2,,4,
4p1[4:2],,8,,7,7,,6,
6qq3[4:2],,3,,2,2,,1,
1>4[8:1],,8h[4:2],,{16}E5,E6,E7,E8,E1,E2,E3,,
4x/8x-4[8:1],,,2,8,,2,,3-8[8:1]/5,,,5,3,,5,,
7-3[8:1]/1,,,2,7,,2,,4-8[8:1]/1,,,1,4,,1,,
2-6[8:1]/7,,,7,2,,7,,5-1[8:1]/8,,,8,5,,8,,
78,,6,,12,,3,,{24}7/4,8,1,2,3,4,5,6,7,8,,,
{16}2,1,2,1,3,8,3,8,4,7,4,7,5,6,5,6,
3,4,3,4,2,5,2,5,1,6,1,6,8,7,8,7,
{32}1,2,3,4,5,6,7,8,1,2,3,4,5,6,7,8,1,2,3,4,5,6,7,8,1,2,3,4,5,6,7,8,
{4}1bv4>1b[4:2]/5bv8<5b[4:2],,,,
{16}E5f/E6/E4/B5/B4/D4/D6,,,,3,4,3,,5,4,5,,2,4,2,,
6,5,6,5,7b,,7,,3,4,2,,7,1,6,2,
5bh[4:1],,,,3,5,3,,6,4,6,,35,,24,,
3b,,3,,2,4,2,4,1h[4:1],,,8,8,,1,,
2b/1b,,,,6,5,7,,2,4,2,,7,5,6,,
3,4,3,4,2b,,2,,7,8,6,,3,5,2,6h[16:3],
,,5,,4-2[8:1],,4,,5-7[8:1],,5,,1,,1,,
6b,,6,,7,5,7,5,8h[4:1],,,1,1,,8,,
7bh[8:4]/8b-3^2-5[8:3],,,,,,,,,,,,6,,6h[8:5]/4<8V25[8:3],,
,,,,,,,,,,,,8,1,2,3,
4/7b-3^2-5[8:3],,,,1,,1,,1h[4:1],,,,6,,6,,
25,,25,,3,4,3,4,2bh[4:1],,,5,5,,3,,
4b/7b,,,,6,5,6,,5,4,5,,4-8[8:1],3,4,,
3,,,,2,1,2,,1,8,1,,8x,1,2,3,
4/7-4[8:1],,7h[8:1],,,,,,1-5[8:1],,1h[8:1],,,,,,
48,,7,5,6,,4,5,4,5,3,5,3,4,2,,
1b/5b,,1/5,,2,4,3,5,4-1[8:1],,,7,7-4[8:1],,6,,
2bv5[8:1],,,,,,7,,74,,6,5,,7/4,47,,
38,,26,,1,2,3,4,5/7-4[8:1],,,3,3-8[8:1],,2,,
6,,6,,1,5,3,,48,,48,,7,3,5,,
24,,24,,1-5[8:1],5,2,5,1b,,,6,6-1[8:1],,7,,
4bh[4:1],,,,,,8,,25,,3,4,,25,25,,
16,,37,,8>4[8:1],7,6,5,4/8,,,7,7,,3,,
51,,2,4,3,,5,4,5,4,6,4,6,5,7,,
48,,48,,7-4[8:1],5,6,4,7-1[8:1],,,3,3-7[8:1],,2,,
3b,,,,6,,6,,16,,7,8,,26,26,,
47,,25,,3-8[8:1],4,2,5,3-5[8:1],,,7b,7b-3-5b[4:1],,6b,,
7b,,2,,1x,,1x,,2b/8b,,4b/6b,,1b/7b,,3b/5b,,
2b-4b[16:1],,,5b-1b[16:1],,,8b-6b[16:1],,,2b,,,5,4,3,2,
1b-3b[16:1],,,4b-8b[16:1],,,7b-5b[16:1],,,1b,,,4,3,2,1,
8b-4b[16:1],,,6b-1b[16:1],,,5,,5b-8b[16:1],,,3b-7b[16:1],,,1b>7[8:5],,
{4},,,,
1b-6[4:4]/8b-5-1[4:10]*-5-2[40:98],,,,
,,,,
,,,,
E4,E6,E2,E8,
{8}3h[4:1]/Cf,,4h[4:1],,5,5,,6,
6h[4:1]/5,,7h[4:1],,5,5,,3,
3h[4:1]/4,,1h[4:1],,2,2,4,3,
5<8[8:1]/1,,2h[4:2],,{16}E1,E2,E3,E4,E5,E6,E7,,
8x-4[8:1]/1x-5[8:1],,,,1/8,,,,1-5[16:1],,,7-3[16:1],,,3,,
2-5[16:1],,,6-2[16:1],,,7,,7-4[16:1],,,2-5[16:1],,,6h,,
8xw4[8:1],,,,8,,,,2,1,,5,6,,24,,
8,7,,3,4,,56,,2,8,,8,1,,26,,
4xv7[8:1]/5xv2[8:1],,,,45,,,,1-5[16:1],,,8-4[16:1],,,3,,
2-6[16:1],,,7-4[16:1],,,5,,5-1[16:1],,,3-7[16:1],,,8h,,
1xw5[8:1],,,,1,,,,7,8,,5,4,,12,,
34,,,5x/6x,6x/5x,,3x/4x,3x/4x,,5x/7x,5x/7x,,4,,3,,
2b/6b,,34,,58,,16,,2h[8:1]/3h[8:1],,,,78,,6,4,
,4,6,,37,,26,,1b>5[8:1]/5b<1[8:1],,,,,,,,
7b/3b,,65,,41,,83,,7h[8:1]/6h[8:1],,,,21,,3,5,
,5,3,,62,,73,,8b>8[8:4]/4b-8[8:2],,,,,,,,
,,,,,,,,1b,,,,12,,5,6,
,1,8,,{24}3,4,3,,4,,2b/5b<8b[8:1],,,,,,,,,,,,
{16}2h[8:1]/4h[8:1],,,3h[8:1]/5h[8:1],,,7b-3[8:1]/4b,,,,,,1,,1,,
2b-6[16:1]/6,,,2/8b-4[16:1],,,8b,,3,,,,{32}1b,2,3,4,5,6,7,8,
{16}1b-5[8:1],,,8,1>4[8:1]/8,,7,,{24}6,7,8,1,,,{16}6-4[8:1],5,6,,
6b-1[8:1]/3,,,2,6/2-5[8:1],,3,,{24}2/1x,8,7,6,,,{16}1,7,2,6,
3b-8[16:2],,,5,3/5-1[8:1],,6,,{24}51,2,3,4,,,{16}5b/6b,,7b/8b,,
2b-5[8:1]/5b,,,1,2/1,,8,,84,,3,,{32}8b,7,6,5,4,3,2,1,
{16}8b-4[8:1],,1,1,8-6[8:1],,2,,{24}8-3[8:1],2,3,4,,,{16}8,2,2,,
1b-5[8:1],,8,8,1-3[8:1],,7,,{24}1-6[8:1],7,6,5,,,{16}1,7,7,,
5b,6,4,4,7,,2b,1,3,3,8,,7b,8,6,6,1,,4b,3,5,5,2,,{24}2b/6b,37,48,51,6,7,8,1,2,37,,,
{16}26,,3,5,3,,46,,8,17,,3,24,,1,,
73,,6,4,6,,53,,2,13,,5,46,,7,,
48,,3,3,7,,26,,1,24,,8,57,,26,,
35,,2,,46,,7,,{24}6/1,5,4,3,2,1,8,7,6,5,,,
{16}3,4,3,4,2,5,2,5,1,6,1,6,8,7,8,7,
2,1,2,1,3,8,3,8,4,7,4,7,5,6,5,6,
{24}4,5,4,5,4,5,3,6,3,6,3,6,2,7,2,7,2,7,1,8,1,8,1,8,{4}3bxqq7[4:2]/7bqq3[4:2],,,,Cf,
