&title=ロストアンブレラ
&artist=稲葉曇/歌愛ユキ
&first=0.09
&des=雨停的前3分24秒
&des_1=雨停的前3分24秒
&des_2=雨停的前3分24秒
&des_3=雨停的前3分24秒
&des_4=雨停的前3分24秒
&lv_5=13+
&des_5=雨停的前3分24秒
&inote_5=(137)
{4},,B4/6,,B8/3,,B2/5<4[4:2],,,,4/B6,,6/E2,,E7/4>5[4:2],,,4h[4:1],
{8}5,64,4,53,6,64,6,86,3,35,3,31,8,65,1,24,6,57,4,53,81,81,8-5[8:1]/1-4[8:1],,8b/1b>8[8:12],,,,,,
{4},,,,,1>3v5<6[4:6]*<7v5<6[4:6],,,,,,,Ch[8:1],
{8}75,8,43,2,5h[8:2],1,3h[8:2],1,5,64,3,24,6h[8:2],8,4h[8:2],8,5,64,3,24,6h[8:2],5,3h[8:2],4,7,64,2,43,6h[8:2],5,3h[8:2],4,6,74,3,25,7h[8:2],1,2h[8:2],8,6,53,2,64,7h[8:2],1,2h[8:2],8,5,61,4,82,7h[8:2],5,3h[8:2],5,6,74,3,52,
{16}7h[8:1]/1h[8:1],,,7h[8:1]/1h[8:1],,,71,,65,,65,,3,4,3,,6,5,6,,3,4,2,,71,,71,,6,5,6,,3,4,3,,6,5,7,,82,,82,,3,4,3,,6,5,6,,2,4,3,,54,,54,,6,5,6,,3,4,3,,7,5,6,,54,,54,,3,4,2,,12,,12,,8,1,7,,65,,65,,4,5,3,,82,,82,,6,5,7,,
{8}8h[8:1]/4h[8:1],,7h[8:1]/5h[8:1],,4h[8:1]/3h[8:1],,1h[8:1]/2h[8:1],,2,31,8,74,65,54,43,52,6h[8:3],5,5,5,3h[8:3],4,4,4,8h[8:3],1,2,3,4h[8:3],8,7,6,5h[8:3],4,3,2,1h[8:3],7,6,5,4h[8:3],8,1,2,3h[8:3],5,6,7,8<8[4:2],,C,,8<8[4:2],,C,,8V64V28[4:2],,C,,8,,,,4h[8:8],,,,8h[8:4],,,,,,,,C,,7b-5[8:1]/1b,,8-4[8:1],8,1-3[8:1],1,7-4[8:1],6,1-5[8:1],2,1x<6[8:1],8,1x>8[8:2],2,5h[8:2],,,
{16}1,,24,,53,,6,4,5,,8,,75,,3,,7-5[8:1],4,4,,7-4[8:1],3,3,,7-3[8:1],2,2,,7,1,1,,,,4x/2x,,,3,4,,54,,6-8[8:1],,6,,5-1[8:1],,5,,4-2[8:1],,4,,5<8[8:1],,6,,5x>2[8:1],,4,,5x<4[8:2],,,,1h[8:2],,,,,,,,5<8[8:1]/1>4b[8:1],,7/3,,,,,,
{8}8<1[4:2]/4h[4:3],,,,,,,,75,64,53,,4-8[8:1]/2h[8:2],,,,71,62,53,,6h[8:2]/4-8[8:1],,,,16,72,83,,8-4[8:1]/4h[8:2],,,,43,2,64,7,1-5[8:1],5-1[8:1],,,8,71,2,13,8-4[8:1],4-8[8:1],,,1,82,7,86,1-5[8:1],5-8[8:1]*-2[8:1],,,,82,3,54,6-2[8:1],2-8[8:1]*-4[8:1],,,,
{16}75,,6,4,5,,2,,43,,7,5,6,,1,,1h[8:2],,7,,7h[8:2],,5,,5h[8:2],,6,,6,,8,,75,,3,5,4,,2,,34,,7,5,6,,15,,2,,7-5[8:1]/3,,4-8[8:1],,,,,,,,,,1,,24,,1,,24,,2,4,3,5,4,6,5,7,4,6,3,5,2,4,1,8,5,6,4,7,3,4,2,5,1,7,1,,6,5,6,,74,,8,,2,1,2,,8h/2h,,8h/2h,,7h/3h,,7h/3h,,6h/4h,,6h/4h,,5h,,5h,,46,,37,,2,1,2,,8,1,8,,2,1,2,,82,,73,,
6,5,6,,4,5,4,,6,5,6,,64,,73,,2,1,3,,8,1,7,,2,1,3,,84,,75,,6,5,7,,4,5,3,,6,5,7,,84,,84,,7,5,7,,83,,83,,7,5,7,,82,,82,,7,5,7,,81,,81,,7,5,7,,8h[8:1]/4h[8:1],,,,7h[8:1]/5h[8:1],,,,4h[8:1]/3h[8:1],,,,8h[8:1]/2h[8:1],,,,1,,82,,65,,65,,54,,43,,25,,1,,7/8>6[4:6],,,,,,,,,,,,,,,,
{4}7h[8:2],,7h[8:2],,
{8},82,8<4[8:6]/2,,
{4},,3h[8:2],,
{16}24,,,5,5x,,,,
{8}3h[8:3],4,5,6,7h[8:3],8,1,2,3h[8:3],8,7,6,5h[8:3],8,1,2,4/3h[8:2],
{16},5,5,,6,,75,,4,,53,,2,,34,,54,,65,,74,,
{12}83,83,83,
{8}83,,2h[8:2],4,5h[8:2],3,
{16}2h[16:2],,,4h[8:1]/3h[8:1],,,54,,7x/5,,3/4x,,6x/5,,2/4x,,
{4},,8/E3,,1/B6,,8<1[4:2]/B4,,,,1/B7,,8/E4,,E6/1>8[4:2],,,4h[8:2],
{16}7,,65,,4,4,5,,1,,24,,3,3,4,,
{8}2h[8:2],4,6h[8:2],8,3h[8:2],5,7h[8:2],1,C,,,,,,54,54,7b-5[8:1]/1b,8,1-6[8:1],2,5-8[8:1],4,1>4[8:1],2,1x<6[8:1],8,1x>8[8:2],2,5xh[8:2],,
{16},,1-6[8:1],,3,,14,,5,5,6,,74,,6,6,5,,7<4[8:1],3,3,,7>2[8:1],3,3,,7-4[8:1],4,4,,7,3,3,,2,,1x/4x,,,3,5,,64,,7-4[8:1],,8,,3-6[8:1],,2,,5>2[8:1],,4,,5x<8[8:1],,6,,5x>6[8:2],,4,,8xh[8:2],,,,,,7,5,6,4,5,3,4w8[8:1],,62,,,,,,
{4}7b<8<4[4:4]/1h[8:10],,,,,,
{8},24,53,64,7h[8:14]/5<4-7V13[8:12],,,,,,,,,,,,,,,
{16},,6,,75,,4,,53,,6,6,5h[8:1],,6,6,5h[8:1],,7,,65,,2,,43,,5,5,4h[8:1],,6,6,5h[8:1],,8,,75,,2,,43,,7,7,5h[8:1],,6,6,4h[8:1],,5,,64,,3,,24,,1,1,8,72,,,,,6xh[8:1]/4h[8:1],,,,7,5,6,,3,5,4,,6,4,5,,2xh[8:1]/4h[8:1],,,,3,3,4,,5,5,4,,3,3,4,,5xh[8:1]/2h[8:1],,,,6,5,7,,4,5,3,,5,4,6,,7xh[8:1]/5h[8:1],,,,6,6,5h[8:1],,7,7,8h[8:1],,6,6,5h[8:1],,7x-3[8:1],,5x/7x,,4-6[8:1],,4,,2-8[8:1],,2,,7-3[8:1],,7,,6x-4[8:1],,6x,,2-8[8:1],,2,,7p2[8:2],,6,,5,,,,7x-5[8:1],,7x,,8-4[8:1],,8,,1-3[8:1],,1,,5-7[8:1],,5,,4x-8[8:1],,4x,,3-1[8:1],,3,,7p2[4:1],,6,,5,,,,
{8}7x-1[8:1],7x,3-5[8:1],3,6x-1[8:1],6x,2-4[8:1],2,5x-1[8:1],5x,2,2,8x-4[8:1],7x-5[8:1],8,7,3x-8[8:1],4,5x-2[8:1],6,7x-4[8:1],8,1x,2,
{16}43,,5,5,4,,65,,7-4[8:1],,3-8[8:1],,7,,3,,5bx<2[8:1],,,,,,,,
{8},,,,,,,C/4xw8[8:11],
E
&lv_6=13
&des_6=不会写
&inote_6=(137){4},,{2}1-6[12:1],
8-3[12:1],
{1}1-5[12:1],
{2}4-7[12:1],5-2[12:1],
{4}4-8[12:1],,,8/1,
{8}7,1,{16}7,8,{8}7,6,{16}6,5,,3,{8}4,
2,4,{16}2,3,{8}2,1,{16}1,2,,8,{8}7,
1,7,{16}1,8,{8}1,7b/2b,2b/7b,,,5/4,
6,{4}7<4[4:1],{2}8h[16:3],
{8}3/4,2,{4}1<6[4:1],{2}2h[16:3],
{8}3/2,4,{4}5>2[4:1],{2}6h[16:3],
{8}2/1,8,7>2[12:1],6,{2}5-1[12:1],
{8}4/6h[4:1],3,2>5[12:1],{16}4,4-1[12:1],,,,,,,{8}7,
8/1h[4:1],7,6<1[12:1],{16}8,8-5[12:1],,,,,,,{8}1,
6/4h[4:1],7,8>3[12:1],{16}2,2-7[12:1],,,,,,,{8}4,
8/5h[4:1],7,6>3[12:1],{16}4,4-7[12:1],,,,,,,{8}1/8,
2/1,3,5/4-7[12:1],{16}5,5-2[12:1],,,,,,,{8}2,
3/4,2,8/1-6[12:1],{16}8,8-3[12:1],,,,,,,{8}3,
4/2,1,7/8-5[12:1],{16}7,7-2[12:1],,,,,,,{8}3,
2/4,5,3/4-1[12:1],{16}3,3-6[12:1],,,,,,,{8}8,
6/5,5/6h[8:1],4h[8:1],6h[4:1],,7h[8:1],5h[8:1],8h[8:1],
6h[8:1],5h[8:1],7h[8:1],4h[8:1],5<8[4:1],3,{4}4h[4:1],
{8},4h[8:1],7h[8:1],3h[8:1],8h[8:1],2h[8:1],6h[8:1],4h[8:1],
5h[8:1],4h[8:1],3h[8:1],5h[8:1],4h[8:1],5h[8:1],6h[8:1],7h[8:1],
8,1/8>3[12:1],,,8,8/1<6[12:1],,,4,
5/4<7[12:1],,,4,4/5>2[12:1],,,8-5[12:1],
8,2-7[12:1],2,4-1[12:1],4,6-3[12:1],6,
8,8,7/1,4,5/3,8,2-5[12:1]/6-1[12:7],4/8,
,,{4}4-1[12:1],{8},,7h[8:1],8h[8:1],
5h[8:1],4h[8:1],6h[8:1],7h[8:1],{4}8,7-4[12:1]/3-8[12:7],
,5-8[12:1],{8},,2h[8:1],1h[8:1],
4h[8:1],5h[8:1],3h[8:1],2h[8:1],1h[8:1],8,{4}2-5[12:1]/6-1[12:7],
,4-1[12:1],,8/2,
8h[4:1],{8}7h[8:1],1h[8:1],2h[8:1],3h[8:1],4h[8:1],5,
{2}6<1[4:1],4>1[4:1],
{4}5-1[4:1],,,5b/4b,
{8}6/5,6/5,3/4,3/4,{16}7,5,{8}6,4-7[12:1],4-1[12:1],
,,8-3[12:1],8-5[12:1],,,1,{16}7,8,
{8}7,{16}6,5,6,5,{8}6,2/1,{16}3,5,{8}4h[8:1],{16}5,3,
{8}4h[8:1],{16}2,5,{8}4h[8:1],{16}6,2,{8}4h[8:1],{16}1,7,{8}4h[8:1],8,
{2}8-5[12:1]/4-1[12:1],{16}2,4,{8}3,6/5-2[12:1],5-8[12:1],
,,1-6[12:1],1-4[12:1],,,7,{16}6/5,6/5,
,,4,5,{8}4h[8:1],5h[8:1],6>3[12:1],6/7,,,3/4,
3/4,{16}5/2-5[12:1],,,4-7[12:1],4,,,3,,,{8}8,
6/5,6/5,{16}4/7-4[12:1],,,5-2[12:1],5,,,6,,,{8}1,
4/3,4/3,{16}3-8[12:1],,,1<6[48:5],1,,,2,,,{8}3,
5/6,5/6,4/7,7/4,{16}6,5,6,5,4,5,4,5,
{8}3,3/2,4/3-6[12:1],{16}5,5>2[12:1],3,,,7,,,{8}6,
5,7/6,5/6-3[12:1],{16}4,4<7[12:1],6,,,2,,,{8}3,
4,2/3,1/2-7[12:1],{16}8,8>3[12:1],2,,,6,,,{8}7,
8,6/7,8/7-2[12:1],{16}1,1<6[12:1],7,,,3,,,{8}4,
{16}6,5,{8}6,7/5,6/7,{16}8,1,{8}8,7/2,4/3,
{16}6,5,{8}6,{16}3,4,{8}3,{16}6,5,6,5h[16:3],,,,,{8}7,
7,{16}5,6,5,6,4,5,4,5h[16:3],{8}4-7[12:1],4-1[12:1],
4-8[12:1],,,2-6[12:1],{2}1-4[12:1],
{8}3/4,2,3/4,5/6,{16}7,8,,2,{8}1-6[12:1],1-4[12:1],
1-5[12:1],,,3,4/2,{16}4,3,,5,{8}6,
6/5,7,6/5,4/3,{16}2,1,,7,{8}8<5[12:1],1-5[12:1],
8-4[12:1],1>4[12:1],8-5[12:1],1-6[12:1],8-4[12:1],1>4[12:1],,,,6/5,
4h[8:1],6h[4:1],,7h[8:1],5h[8:1],8h[8:1],
6h[8:1],5h[8:1],7h[8:1],4h[8:1],5<8[4:1],3,{4}4h[4:1],
{8},4h[8:1],7h[8:1],3h[8:1],8h[8:1],2h[8:1],6h[8:1],5h[4:1],
,4h[8:1],3h[8:1],5h[8:1],4h[8:1],5h[8:1],6h[8:1],7,
8/1-5[8:1],1/8,,,6/7-3[8:1],7/6,,,4/5-1[8:1],
5/4,,,2/3-7[8:1],3/2,,,8/1-5[12:1],
7,6-2[12:1],7,8-4[12:1],1,2,3,
4/5,6/7,5/4,3/2,4/5,6/3,{4}2-5[12:1]/7-4[12:1],
{8},,,,,,,,5,
6,{4}7,{8}5,6,{4}7<4[2:1],
{8},,,,,,,,4,
3,{4}2,{8}4,3,{4}2,
{8}5/7,6,4/5,3,4/2,3,4/5,6,
5/7,8,2/1,3,4/2,1,8/7,6,
7/5,4,3/2,1,7/8,6,4/5,3,
1/2,7/8,6/5,4/3,{12}2/1,1/2,2/1,2b/1b,{24},,,,{8}8,
8,8,{16}2,1,{8}3,{16}7,8,,,{8}1/8,
2/7,6/5,3/2,7/8,,,{4}4/5,
{2}7-4[4:1],3<6[4:1],
{4}8>3[4:1],7<4[4:1],7,1,
{2}2-5[4:1],6>3[4:1],
{4}1<6[4:1],2>5[4:1],2,8,
{8}7,8,6/1,2,{16}3,5,{8}4,6,{16}7,5,
{8}6,4,3/5,2,1/8,7/6,5/4,{16}5,4,
{4}6<1[2:1],{8},,,,3,3,
{16}3,4,{8}3,{16}6,5,{8}6,{16}2,4,{8}3,6/5-2[12:1],7-4[12:1],
5,7,1-6[12:1],7-4[12:1],1,7,2,{16}8,1,
{8}8,{16}6,5,6,5,{8}6,7/8,{16}6,4,{8}5<8[12:1],{16}4,4,
{8}5-1[12:1],{16}4,4,{8}5>2[12:1],{16}4,6,{8}5-1[12:1],{16}6,6,{8}5,8,
{2}5-2[12:1]/4-7[12:1],{16}7,5,{8}6,3/4-7[12:1],2-5[12:1],
4,2,8-3[12:1],2-5[12:1],8,2,7,{16}1/8,1/8,
,,2,4,{8}3h[8:1],4h[8:1],5,5/6h[8:1],{4}7,
{8}7/8,7/8>3[12:1],{4}5/6,{16}4,5,6,4,{4}5,
{8}2/1,2/1<6[12:1],{4}4/3,{16}5,4,3,5,{4}4,
{8}6/5,6/5>2[12:1],{4}8/7,{16}1,8,7,1,{4}8,
{8}3/4,3/4<7[12:1],{4}1/2,{16}8,1,2,8,{4}1,
{8}6/5,7/4,5/3,4/6,{16}5,6,,4,{8}3,6/4,
2/1,3/8,1/7,8/2,{16}1,2,,8,{8}7,2/8,
4/3,6/5,7/4,5/2,{16}3,4,,6,{8}5,7/4,
4/3,6/5,7/4,5/2,{16}3,4,,6,{4}5/4,
{8}6/3,6/3,{16}4,5,4,5,4,5,4,5,4,5,4,5,
{8}3/6,7/2,{16}1,8,1,8,1,8,1,8,1,8,1,8,
{8}7/2,8/5,{16}7,6,7,6,7,6,7,6,7,6,7,6,
{8}8/5,1/4,{16}2,3,2,3,2,3,2,3,2,3,2,3,
{8}4/1,4/1,8/5,6/7,,5h[8:1],4h[8:1],3h[8:1],
4h[8:1],3h[8:1],2h[8:1],1h[8:1],8h[8:1],7,{4}8/7h[4:1],
{8}5,6/5h[8:1],7h[8:1],8h[8:1],4h[8:1],5h[8:1],6h[8:1],4h[8:1],
3h[8:1],5h[8:1],4h[8:1],6h[8:1],7h[8:1],8h[8:1],{4}1h[4:1],
{8}8-5[12:1],5/4,,,1-4[12:1],5/4,,,5-8[12:1],
1/8,,,4-1[12:1],1/8,,,7>2[12:1],
5,3>8[12:1],5,7>2[12:1],5,3,5,
4/6,{16}5,4,{8}5-8[12:1],5-2[12:1],5-1[12:1],5,{4}5,
{1}1b/8b,
E
&des_7=雨停的前3分24秒
