&title=[音]八月、某、月明かり
&artist=ヨルシカ
&first=239.556
&lv_5=14+?
&des_5=lateral
&inote_5=
(220){4}
||This
is
a
marking~
,{1},,,,,,,,,,,,,,,,,,,,,,,,,,,,,,,,,,,,,,,,,,,,,,,,,,,,,,,,,,,,,,,,,,,,,,,,,,,,,,,,,,,,,,,,,,,,,,,,,,,,,,,,,,,,,,,,,,,,,,,,,,,,,,,,,,,,,,,,,,,,,,,,,,,,,,,,,,,,,,,,,,,,,,,,,,,,,,,,,,,,,,,,,,,,,,,,,,,,,,,,{4},,{32}1,
2,3,4,5,6,7,8,
{2}1b,{8}7/5,6,6,4/2,
3,3,{16}8v2[4:1],7,6,5,2-6[8:1],3,4,5,{1},,,,,,,,,,,,,,,,,,,,,,,{4},,,{16}1,
2,3,4,5,6,7,8,
{8}5/1h[8:7],2,3,4,8,7,5,6,
2/7h[8:3],3,4,5,6/1h[8:3],5,4,{32}3,B3,C,B7,
{8}5b/A7h[8:7],5,4b,4,3b,3,2b,{16}2,D7,
{8}1b/A6h[8:7],1,3b,3,2b,2,4b,{32}4,B4,C,B1,
{8}5b/A1h[8:7],5,4b,4,3b,3,2b,{16}2,D1,
{8}6b/A8h[8:7],6,4b,4,3b,3,5b,{32}5,1/A6,2/A7,3/A8,
{8}4b/A1h[8:7],4,5b,5,3b,3,6b,6,
5/8,5/8,4/1,4/1,3/7,2/6,4/8,5/1,
1h[8:3],3,5,7,2h[8:3],4,6,8,
3h[8:3],5,7,1,4h[8:3],6,8,2,
8h[8:3],6,4,2,7h[8:3],5,3,1,
6h[8:3],4,2,8,5h[8:3],3,1,7,
4h[8:3],6,2,{32}8,E5,E6,E7,{8}7xh[8:3],1,5,3,
8h[8:3],2,6,{32}4,E8,E7,E6,{8}5xh[8:3],3,7,1,
3h[8:3],5,1,{32}7,E3,E2,E1,{8}8xh[8:3],2,6,{32}4,E8,E7,E6,
{8}5xh[8:3],7,3,1,8/4,5/1,{16}2/6,1/5,4/8,7/3,
{8}6/2-4[8:1],3,2/6-8[4:1],7,{4}4-6[8:1],{8}5/1-6[8:1],2,
1/6-3[8:1],5,6/3-8[8:1],2,3/8w4[8:1],7,{4}8,
{8}8/A3,6/A1,4/A7,2/A5,7/A3,5/A1,3/A7,1/A5,
8/A4,2/A6,4/A8,6/A2,1/A5,3/A7,5/A1,7/A3,
2/C,6/C,2/C,6/C,{16}A3/C,A7/C,A2/C,A6/C,A3/C,A7/C,A2/C,A6/C,
{8}Ch[4:1],,,,,5bw1b[1.5##0.1364],{4}1bw5b[1.6364##0.1364],
{8}1b-5-1b[0.1364##0.2727],,,5b,,2b/8b,7b/3b,4b/6b,
E
&lv_7=14+?
&des_7=
&inote_7=
(220){4},{1},,,,,,{4},{16}1,
2,3,4,5,6,7,8,
{8}5/1h[8:7],2,3,4,8,7,5,6,
2/7h[8:3],3,4,5,6/1h[8:3],5,4,{32}3,B3,C,B7,
{8}5b/A7h[8:7],5,4b,4,3b,3,2b,{16}2,D7,
{8}1b/A6h[8:7],1,3b,3,2b,2,4b,{32}4,B4,C,B1,
{8}5b/A1h[8:7],5,4b,4,3b,3,2b,{16}2,D1,
{8}6b/A8h[8:7],6,4b,4,3b,3,5b,{32}5,1/A6,2/A7,3/A8,
{8}4b/A1h[8:7],4,5b,5,3b,3,6b,6,
5/8,5/8,4/1,4/1,3/7,2/6,4/8,5/1,
1h[8:3],3,5,7,2h[8:3],4,6,8,
3h[8:3],5,7,1,4h[8:3],6,8,2,
8h[8:3],6,4,2,7h[8:3],5,3,1,
6h[8:3],4,2,8,5h[8:3],3,1,7,
4h[8:3],6,2,{32}8,E5,E6,E7,{8}7xh[8:3],1,5,3,
8h[8:3],2,6,{32}4,E8,E7,E6,{8}5xh[8:3],3,7,1,
3h[8:3],5,1,{32}7,E3,E2,E1,{8}8xh[8:3],2,6,{32}4,E8,E7,E6,
{8}5xh[8:3],7,3,1,8/4,5/1,{16}2/6,1/5,4/8,7/3,
{8}6/2-4[8:1],3,2/6-8[8:1],7,6/4-6[8:1],5,4/1-6[8:1],2,
1/6-3[8:1],5,6/3-8[8:1],2,3/8w4[8:1],7,{4}8,
{8}8/A3,6/A1,4/A7,2/A5,7/A3,5/A1,3/A7,1/A5,
8/A4,2/A6,4/A8,6/A2,1/A5,3/A7,5/A1,7/A3,
2/C,6/C,2/C,6/C,{16}A3/C,A7/C,A2/C,A6/C,A3/C,A7/C,A2/C,A6/C,
{8}Ch[4:1],,,,,5bw1b[1.5##0.1364],{4}1bw5b[1.6364##0.1364],
{8}1b-5-1b[0.1364##0.2727],,,5b,,2b/8b,7b/3b,4b/6b,
E
