&title=アマツカミ
&artist=a_hisa
&first=0.12
&lv_5=14.4
&des_5=ハッピーシチミポップ☆
&inote_5=(180){8},,1-4[8:8],,,,8,,,,7,,,,6,,,,5h[8:8],,,,4,,3,,2-8[8:2],,,,7,,6,,5h[8:8],,,,2,,3,,4h[8:6],,6,,7,,8,,1/2,,3,,8/7,,6,,Chf[8:4],,,,,,,,
5w1[8:4],,,,,,,,7-4[8:4]*v4[8:4],,,,,,,,2pp7[8:4]*-6[8:4],,,,,,,,8-5[8:4]*>1-4[8:4],,,,,,,,{12}E4,B3,B2,E6,B6,B7,B3,B2,E2,B6,B7,E8,1,2,3,8,7,6,2,3,4,7,6,5,2xh[12:2],B1,B8,7xh[12:2],B6,B5,4xh[12:2],B7,E7,5xh[12:2],E3,B2,1x,1,1,7x,7,7,{16}2,6,2,6,3,5,3,5,4x,3,2,1,4x,5,6,7,4x,3,2,1,8,7,6,5,{8}4-2[8:1]/Cf,,
7-5[8:1],,1-7[8:1],,6-3[8:1],,6/7,,8p5[8:2],1,2/8,,,,3-7[8:1],,1qq6[8:3],,2,3,4,5,8/3,{16}1,2,{8}1q4[8:2],8,7/1,,7bh[8:2],,1-3[8:1],,6-8[8:1],,4-7[8:1],,8-5[8:1],,8,,4,3,2,{16}1,8,{8}1,8x,7-3[8:1],,7/8,8,1x-5[8:1],,1/8,8,7x-3[8:1],,7/8,1,2,{16}3,4,{8}3,2/5,Cf,,7/4-6[8:1],3,4x/7xh[8:1],,7/3-5[8:1],2,7xh[8:1]/3x,,7/2-4[8:1],1,2/7,8b-5b[8:1],8b,,C,,
2/5-3[8:1],6,5x/2xh[8:1],,2/6-4[8:1],7,2xh[8:1]/6x,,2/7-5[8:1],8,7/2,1b,1b,1b,Cf,,7/3-5[8:1],2,3x/7xh[8:1],,7/2-4[8:1],1,7xh[8:1]/2x,,7/1-3[8:1],8,1/7,8b-5b[8:1],8b,,C,,4-1[8:1]/5,4,4,,5-8[8:1],5,5,1,2,3,4,5,6,7,8-2[8:1]/4h[8:2],,8x-6[8:1],,8x-2[8:1]/3,3,3h[16:3]/8x-6[8:1],,{32}8x-2[8:1]/D4,4h[32:11],,,,,,,{8}8x-6[8:1],,8/5,4,3,2,1-7[8:1]/5h[8:4],,1x-3[8:1],,
1x-7[8:1],,{32}1x-3[8:1]/4x,5x,6x,,,,,,{8}1x-7[8:1]/6bxh[8:2],,1x-3[8:1],,1/6h[8:1],,7h[8:1],,8-2[8:1]/4h[8:2],,8x-6[8:1],,8x-2[8:1]/5,5h[8:1],8x-6[8:1],4,4h[8:4]/8x-2[8:1],,8x-6[8:1],,8,4,3,2,1-7[8:1]/6h[8:4],,1-3[8:1],,1-7[8:1],,1-3[8:1]/5-7[8:1],,1-7[8:1]/5-3[8:1],,1/5,,{16}4x,3x,2x,1x,4x,3x,2x,1x,{8}8b-6[8:1]/4h[8:2],,8-2[8:1],,8-6[8:1]/5,5,5h[16:3
]/8-2[8:1],,
{32}8-6[8:1]/D5,4h[32:11],,,,,,,{8}8-2[8:1],,8/5,4,3,2,1-7[8:1]/5h[8:4],,1-3[8:1],,1-7[8:1],,{32}1-3[8:1]/4bx,5x,6x,,,,,,{8}1-7[8:1]/6bxh[8:2],,1-3[8:1],,1,,6,7,8-2[8:1]/A4h[32:7],,8-6[8:1]/A5h[32:7],,{32}8/4bx,3bx,2bx,,,,,,{8}1,1,1-7[8:1]/A5h[32:7],,1-3[8:1]/A4h[32:7],,{32}1/5bx,6bx,7bx,,,,,,{8}8,8,8<5b[8:1]/4h[8:1],,{32}8b/4,3,2,1,,,,,{8}1>4b[8:1]/5h[8:1],,
{32}1b/5,6,7,8,,,,,{8}8-6[8:1]/1-3[8:1],,8-4[8:1]/1-5[8:1],,8<5[8:1]/1>4[8:1],,8/1,,5bh[8:8],,,{16}B1,B2,{8}B3,,,{16}B8,B7,{8}B6,,,{16}2x,3x,{8}4xh[8:4],5,6,7,8h[8:4],,,1,1,,2-5[8:1],,7h[8:8],,,,6,,5,,4h[8:8],,,{16}B8,B7,{8}B6,,,{16}B1,B2,{8}B3,,,{16}7x,6x,{8}5xh[8:4],4,3,2,1h[8:4],,,8,8,,7-4[8:1],,2h[8:8],,,,3,,4,,5h[8:8],,,{16}1x,1,{8}1,,,{16}7x,7,{8}7,,,{16}3x,3,{8}3,7,6,5,4h[8:8],,,
{16}8x,8,{8}8,,,{16}2x,2,{8}2,,,{16}6x,6,{8}6,2,3,4,5,5,6/B4,{16}6bx,6,{8}B3,7,6,5,4,4,3/B5,{16}3bx,3,{8}B6,2,3,4,5,{16}3,4,3,,6,5,6,,2,1,2,,7,8,7,6,5,4,8,1,2,3,8x,1x,5x,4x,{32}8,E8,B7,B6,1,E2,B2,B3,{4}5bxqq3qq1qq7qq5pp7pp1pp3pp5[8:54],,,,A4,,,,A3,,,,A2,,,,A1,,,,A8,,,,A7,,,,A6,,4,3/5,6/B2h[32:17]/B3h[32:18]/E3h[32:19],7,6,5,4/B6h[32:17]/B7h[32:18]/E7h[32:19],3,2,4,5/B2h[32:17]/B3h[32:18]/E3h[32:19],6,7,6,5h[4:2]/4h[4:2],,,5,4/E8h[32:17]/B7h[32:18]/E7h[32:19],
3,2,3,4/E2h[32:17]/B2h[32:18]/E3h[32:19],5,6,7,A1h[4:4]/A8h[4:4]/E1h[4:2]/E8h[4:2]/E2h[4:2]/B1h[4:4]/B8h[4:4],,,,,,,{8}C,,{16}3/6,,3,4x,5x,3/6h[16:1],4x,5x,3hx[8:2],,8,,5hx[8:2],,1,,3h[8:1],,6,5x,4x,3h[16:1]/6,5x,4x,6hx[8:2],,1,,4hx[8:2],,8,,6h[8:1],,3,4x,5x,6h[16:1]/3,4x,5x,4hx[8:2],,8,,5hx[8:2],,1,,3h[8:1],,6,5x,4x,3h[16:1]/6,5x,4x,6/3h[8:3],,B5,,B5,,B5,,
{4}4/6-2[8:1],4<7[8:1],1-4b[8:1],1,3-7[8:1]/5,5>2[8:1],8-5b[8:1],8,{8}3/1h[8:1],3,3/8h[8:1],3,3/7h[8:1],3,3/6h[8:1],3,{16}4/5,,4,5,2b,,5,4,7b,,4,5,2b,,5,,6x/3h[8:1],,6x,5,4,3h[16:1]/6x,5,4,6hx[8:2]/3,,1,,4hx[8:2],,8,,6h[8:1],,3x,4,5,3x/6h[16:1],4,5,3hx[8:2]/6,,8,,5hx[8:2],,1,,3h[8:1],,6x,5,4,3h[16:1]/6x,5,4,6hx[8:2]/3,,1,,4hx[8:2],,8,,6h[8:1],,3x,4,5,6h[16:1]/3x,4,5,4q2[8:1]/6h[8:2],,,,4,,,,
{4}5/3-7[8:1],5>2[8:1],8-5b[8:1],8b,6-2[8:1]/4,4<7[8:1],1-5b[8:1],1b,{16}3/4,,3,4,3,,4,5,4,,5,6,5,,6,7,{8}6-8[8:1],5,6/2-4[8:1],1,2/6-1b[8:1],5,6/2w6b[8:1],1,2b/B2f,,,{16}2x/7x,2/7,2/7,,1/8,,1-4[8:1]/8-5[8:1],,,,1/8,,,,,,3x/6x,3/6,3/6,,4/5,,4-1[8:1]/5-8[8:1],,,,4/5,,,,,,4x/7x,4/7,4/7,,5/6,,5-2[8:1]/6-1[8:1],,,,5/6,,,,,,5x/2x,5/2,5/2,,3/4,,3h[8:1]/4h[8:1],,,,3bx/7bx,6,5,4,7,6,5,4,1,2,3,4,2,3,4,5,8,7,6,5,1,2,3,4,8,7,6,5,3/4,2,1,8,
5,6,7,8,2,3,4,5,1,8,7,6,8,7,6,5,7b,6,5,4,6b,5,4,3,5b,4,3,2,4bh[4:1],,,,{12}7x-3[8:1],7,7,2x,2,2,1x-5[8:1],1,1,7x,7x,7x,4b-1[8:1],5,6,7x,7x,6,5v8[8:1],4,3,2>4b[8:1]/5<7b[8:1],1x,1x,2b/5b,
