&title=運命線上のアリア
&artist=森羅万象 Vo.あよ
&first=0.01
&des=TragiC
&lv_5=14
&des_5=TragiC
&inote_5=
(185){4},,,,,,,,6/5,
7h[8:3],{8}1,1-5[8:1],,8/1,
,7h[8:3],,5,{4}5,4/5-1[8:1],
3/5,2h[8:3],{8}8,8-4[8:1],,8/1,
,2,,3,5/4,6,{4}7/5-1[8:1],
4/5,2h[8:3],{8}8,8-4[8:1],,1/8,
,2h[8:3],,4,{4}4,5/4-8[8:1],
6/4,{8}7,{16}1,8,{8}2,4-7[8:1],3,4xp1b[8:3],
,,,,{2}8-5[8:1]*-3[8:1],
{4}2/6h[8:1],2/5h[8:1],4h[8:1]/3-1[8:1],{8}5,5,
,7,1,6,{16}2h[16:3],,,5h[16:3],,,{8}6,
{4}6-4[8:1],7,8-2[8:1],3,
{16}4/5xh[2:1],,,,,6x,7x,8x,1x,2x,3x,4x,6,5,6,5,
{4}7,7/5h[8:1],4h[8:1]/6-8[8:1],{8}3,3,
,2,8,3,7-5[8:1],4,{4}7,
2-4[8:1],1,8,{8}7,7,
1/6,1/6,{16}3,4,{8}3,{4}5-1[8:1]/2-4[8:1],2x/5x,
8xh[1:1],E7/B6,,E6/B5,
4h[1:1],E8/B8,,E7/B6,
6h[4:3],B5/E5,,B3/E4,
{2}5h[4:1]/3h[4:1],4h[4:1]/2h[4:1],
{4}1h[1:1],B3/E3,,B1/E2,
7h[1:1],E8/B8,,E7/B6,
5h[4:1],{8}6,{16}3,4,{8}2,8-4[8:1],1,8,
,,,,{2}3h[4:1]/7h[4:1],
{4}6/5V38[4:1],{8}5/8,7,{16}6x,,,5x/1x,,,{8}4/2V48[4:1],
,2,5,6,{16}7x/1x,,,1x/7x,,,,,{8}6/5,
4,7-4[8:1],5,7,3-8[8:1],5,3,
{4}4<1[4:1],1qq4[8:3],2-5[8:1],2,
{8}6/3,2-5[8:1],1,2,8-6[8:1],4,8,3,
{4}5/2V48[4:1],{8}4/2,5<1[4:1],,1>5[4:1],,5<8[8:1],
,8,1,2,3/4,5,6/2,6/2,
,1b,2b/8b,7b/3b,{2}6b/4b,
{4}4/5-1[8:1],6/5,{8}7-3[8:1]/8-4[8:1],6/1,{4}7/8,
2/5qq4[4:1],5/4<8[4:1],8>3[8:1],{8}4,5-2[8:1],
,6/5,,7,{4}7v4[8:1]/1-3[8:1],7/1<5>3[8:3],
1/5>1[4:1],1-6[8:1],5,{8}4,4V28[4:1],
,8V64[4:1],,4-7[8:1],3,2,{4}1,
6/8qq7[4:1],8/7>3[4:1],3<6[8:1],{8}7,7-2[8:1]*v4[8:1],
,,,3x/5x,{4}3x<5[8:1]/5x<8[8:1],5-1[8:1],
7x,6/2q7[4:1],2/7>3[4:1],{8}5,5-1[8:1],
,4/5,,8/2,{4}2/8,{16}3,7,3,7,
{4}3-5[8:1],8h[8:1]/3-1[8:1],3/6h[8:1],{8}2/4h[8:1],2pp5[8:3],
,2,8,7,{16}6h[16:3],,,4h[16:3],,,{8}3,
{4}3-5[8:1],2,1-7[8:1],6,
{16}5/4xh[2:1],,,,,3x,2x,1x,8x,7x,6x,5x,{4}4x/3pp4[4:1],
3/4>8[4:1],8<4[4:1],4>1[8:1],{8}8,7v4[8:1],
,7,2-5[8:1],5,2,6,{4}7<4[8:1]/4>1[8:1],
7b/4bpp8[2:1],3,2,{8}1,1,
2/5,5/2,3/6,3/6z2b[8:3],{2}4/7h[4:1],
{6}8xh[2:1],1,1,2h[2:1],4,4,
6h[2:1],3,4,5h[6:1],7,8/1,
4/2h[2:1],5,6,7h[2:1],3,4,
5h[3:1],6,7,8/1,{12}2,4,3,5,
{6}4h[6:1],{12}6,5,6,5,{6}7h[6:1],{12}4,5,4,5,
{6}3h[6:1],{12}5,4,5,4,{6}6h[6:1],{12}3,4,3,4,
{6}2h[6:1],{12}5,4,6,5,{6}7h[6:1],{12}4,5,3,4,
{8}2,2,1/8,8/1,2/7,{16}6,5,{8}6,{16}3,4,
{4}3-8[8:1],3/5,{8}6-1[8:1],1,6,2V48[4:1],
,7,6,5V71[4:1],,1,2,3,
{4}4x>1[8:1],{24}4/8-3[8:1],7x,6x,5x,,,{8}8x/4x,5-1[8:1],4,5>2[8:1],
,5x/8,7,6,1-6[8:1],5,1,4pp5[4:1],
,8/4,1,2,{4}3-6[8:1],{8}3/7,8qq7[4:1],
,5/8,4,3,{4}2-6[8:1],2/7<4[8:1],
{24}7/8,1x,2x,3x,,,{4}5/1-3[8:1],{8}1,4-8[8:1],2,4,
3,{16}7,5,7,5,7,5,8,7,6,5,8-4[8:1],1,2,3,
{4}8,5/3V52[4:1],{8}3/6,7v4[8:1],,7/1,
,5-8[8:1],2,5,,3v6[8:1],7,3,
{4}8b-2[8:1],{8}8-4[8:1],4-6[8:1],8,{16}3x,2x,{8}1x,8x/7xv4[8:1],
,8/7,1>5[4:1],1,{16}5,6,7,8,{4}1h[8:1],
{8}5-2[8:1],5,7-4[8:1],7,3-8[8:1],3,6-1[8:1],6,
2-5[8:1],2,8<4[4:1],8,{16}4,3,2,1,8,7,6,5,
{2}4/8h[4:1],5/2h[4:1],
{1}6h[2:1]/4q5[4:3],
7qq1[4:3],
{4}2,{8}2,1,3/8,7/2,6/1,5/8,
,4/1>3[8:1],4/1,{16}5,6,{8}7h[8:1],{16}4,5,6,7,8,1,
{8}2x/6,6/2x,,8/4,{4}4-1[8:1]/8-5[8:1],8/4,
6/2h[8:11],6,6,6,
6,6,6,6,
6/3,3/6,{8}6/3,5,3/6,4,
{4}6/3,6/3,{8}6/3,5/4,{4}6/3,
{8}2,2,4,4,5,5,7,7,
3,3,6,6,{16}4,5,3,6,2-5b[8:1],7,1,8,
{1}2b,
{6}6b/5b,4b/3b,2b/1b,8b/7b,6b/1b,5b/2b,
{4}4x/3x-7[8:1],3/4-6[8:1],{8}4/8x,{16}1,2,{4}3/7b-5[8:1],
7b/4b-8[8:1],4/3>5[4:1],3/7,{8}4,4V68[4:1],
,8-2[8:1],,3,{4}3-6[8:1],8/3,
5-1[8:1]/7-4[8:1],7/5<8[8:1],5x/2-5[8:1],{8}2,1-6[8:1],
,1/4-2-5[4:1],,5-1[8:1],6,7,{4}8<5[8:1],
8/3pp4[4:1],3/4>1[8:1],7-3[8:1],{8}7,8V64[4:1],
,4V28[4:1],,8,{4}7-5[8:1]*-3[8:1],7,
4-8[8:1]/2-5[8:1],2/4>1[8:1],4x/7-5[8:1],{8}7,8>2[8:1],
{16},,4,5,{8}6>4[8:1],7/3,{16}2,1,{8}8,{16}5/1,6/2,7/3,8/4,
{4}5/1,3/7<5[8:1],{8}7>1[8:1],2,7,4>2[8:1],
,6/4,{16},,8,1,{8}7h[8:1],{16}4,6,3,5,2,4,
{4}1-5[8:1],1/6<3[4:1],6/3V57[4:1],{8}8,1-5[8:1],
,1/8V62[4:1],,4,{4}4,3-5[8:1]/1-7[8:1],
3/1,4/6-2[8:1],6/3-8[8:1],{8}3/1,7-4[8:1],
,7/1<6[8:1],,1/5,{2}5-8[8:1]*v2[8:1],
{4}3/7-4[8:1],7/1-5[8:1],1/5,{8}7/3v2-7b[2:1]*v4-7b[2:1],3/7,
{16},,,,,,,,,,,,8/6,1,2,3,
{4}5/4pp5[4:1],4/5>1[4:1],1<7[8:1],{8}6,6,
,5<8[8:1],8>3[8:1],5,{16}2,,,4,,,{8}5/6,
{4}6/5>1[4:1],1<5[4:1],5V31[4:1],1V75[4:1],
5>1[4:1],1<5[4:1],5-2[8:1],1,
1/8pp1[4:1],8/1<5[4:1],5>3[8:1],{8}2,2v5[8:1],
,2/6-1[8:1],,6,{16}4,,,3,,,{8}2/8,
{4}2/8<4[4:1],4>8[4:1],8<6[8:1],4,
{8}4/5x,{16}3,4,{8}3,2/8,{16}7,1,{8}7,{4}6/2-4[8:1],
7/2-8[8:1],5/2-5[8:1],6/2,{8}4/7,4/7qq4[8:3],
,3,2,1,{16}8h[16:3],,,5h[16:3],,,{8}6,
{4}6-4[8:1],7,8-2[8:1],3,
{8}5/3,4,5/6,{16}7,1,7,1,{8}7,2,3,
{4}4/5-1[8:1],6/5<3[4:1],5/2,{8}4,4,
5,5,8/6,8/6,1/7,7/1,8/2,2/8,
{4}7b/3b,{8}6/4,6/4,{16}3,5,4,6,5,7,1,8,
{1}2bq5b[4:3],
{4}6h[4:3],{8}5,5-3[8:1],,,,,{4}2h[4:3],
{8}4,4-6[8:1],,,,,{4}8h[4:3],
{8}5,5-3[8:1],,,,,{1}1/7p2[4:3],
1b<3p6b[4:15],
E
