&title=Selenadia
&artist=Lime
&first=-0.174
&des=Μπίγγυ
&lv_5=14+
&des_5=Μπίγγυ
&inote_5=
(227){4},,,,{2}2-6-8-4[4:19],
3h,
,4h,
,5h,
,6h,
,7h,
,8bh[2:1]/4h[2:1],
{32},,,,,,,,,,,,,4x/8x,3x/7x,2x/6x,{2}1bs5[4:5]/5bV73[4:5],
{4},,,,,,2h[4:3],
3,
4,{8}5,5h[8:5],,,{4}7,
{32}1,,,,,,,,,,,,,5/1,2/6,3/7,{2}4z8[4:5]/8V25[4:5],
{4},,,,,,7h[2:1],
5,
3,1>4b[8:1],{32}5x,6x,7x,8x,{4},,,{16},,{8}2-6[8:1],
5,2,7-3[8:1],
4,7,1-5[8:1],5,1,8-4[8:1],4,8,
{4}2-6[8:1],2,{8}7-4[8:1],4,7,2-5[8:1],
5,2,8,8,,8/4,{16},,3/7,2/6,
{4}1b-4[8:1]/5b-8[8:1],1/5,{8}7-3[8:1],4,7,2-6[8:1],
5,2,8-4[8:1],4,8,1-5[8:1],5,1,
{4}7-3[8:1],7,{8}2-5[8:1],5,2,7-4[8:1],
4,7,1,1,,1/5,{16},,6/2,7/3,
{4}4b/8bh[4:1],2-5[8:1],{8}2/8,7-2[8:1],,7/5,
{4}4-7[8:1],{8}4/2,1-5[8:1],,1/7,{4}6>7[4:1],
{24}E6,E5,E4,E3,E2,E1,{4}E8,2,2,
2/5h[4:1],2,2/6h[4:1],2,
2/7h[4:1],2,3/8h[4:1],3,
3/7h[4:1],3,3/6h[4:1],3,
3/5h[4:1],{16}E4,B4,B5,E6,{8}E1,E2,E3,E4,
E5,E6,E7,E8,{16}B3,B4,{8}E5,B8,B2,
{16}B6,B5,{8}E5,B1,B7,E3/B2,E7/B6,E1/B8,Ch[8:3],
{24},,,,,,,,,,,,{12}1,2,3,8,7,6,
1,2,3,4/5,{48},,,,,,,,{16}5,4,5,4,5,4,5,4,
5,3,5,3,5,3,5,3,5,2,5,2,5,2,5,2,
5,1,5,1,5,1,5,1,5,1,5,1,5,1,5,1,
6,1,6,1,6,1,6,1,7,1,7,1,7,1,7,1,
8,1,8,1,8,1,8,1,{8}7h[4:1],2,3,4,
8,{16}3,4,{8}3h[8:1],6,1,2,3,{16}6,5,
{8}6h[8:1],4,3,2,{4}7-4[8:1],{8}2-6[8:1],2,
{16},,,,1,8,7,6,{2}5bh[2:1]/1bh[2:1],
{4},2-5[8:1]/6-1[8:1],{32}2/6,Cf,,,,,,,,,,,{8}4/8,
{4}3-8[8:1]/7-4[8:1],3/7,1xh[4:1],{8}3,4,
1/5,2,3/6,7,5h[4:1]/8V64[4:1],,,3,
{4}2-5[8:1],2,{8}7,7,4,3,
{4}2/5,5/6,{8}3/8,{16}2,1,{8}2,8/3,
{16}2,1,{8}2,{4}3/8<5[8:1],8>3[8:1],8-5[8:1],
8-3[8:1],8,2x/5x-8[8:1],{8}5/2,3,
{4}4-1[8:1],4/5,{16}5,6,7,8,3,4,5,6,
7,8,1,2,{4}3-8[8:1]/7-4[8:1],{32}7/3,C,,,,,,,,,,,{8}1/5,
{4}2-5[8:1]/6-1[8:1],2/6,8xh[4:1],{8}6,5,
8/4,7,6/3,2,4h[4:1]/1V35[4:1],,,6,
{4}7-4[8:1],7,{8}3,2,1/5,6,
{4}7/4h[4:1],{8}7,6,5/2,{16}3,4,{8}3,2/5,
{16}3,4,{8}3,{4}5/2-5[8:1],2-8[8:1]/7-4[8:1],2/7-3[8:1],
7/1x-5[8:1]*-6[8:1],1,{8}4x/7x,{16}6,5,{8}6,4/7,
{16}6,5,{8}6,{4}4/7-3b[8:1],{2}7/5h[2:1],
{16}4h,3h,2h,1pp4[2:7],4/8qq5[16:55],3/7h,2/6h,1/5h,{2}Cf,
{1},,,{4},,{8}6h[4:1]/4h[4:1],
,,6/4,
,,{4}Ch[64:1],{1},,{12}4,
5,3,6,5,7,
4,5,2,6,5,8,{8}4>1[8:1],4,,7<4[8:1],
{4}7,{8}2<7[8:1],2,,5>2[8:1],{4}5,
{8}8<5[8:1],8,,3>8[8:1],{4}3,{8}6>3[8:1],6,
,1<6[8:1],{4}1,{8}4>1[8:1],4,,7,
{4}7-3[8:1],7,{16},,,,1x,8,1,8,
{8}2h[8:1],{16}7x,8,7,8,{8}6h[8:1],{16}2x,4,2,4,{8}3h[8:1],{16}6x,5,
6,5,{8}7h[8:1],{16}3x,4,3,4,{8}2h[8:1],{16}6x,5,6,5,{8}7h[8:1],
{16}3x,2,1,8,7,6,3x,2,1,8,7,6,3x,2,1,8,
7,6,3x,2,1,8,7,6,{2}3bq6[4:5],
{12},,,,,,,,,,,,,,,,,,2,
4,1,7,5,8,
3,5,1,6,4,8,{2}5b-1[8:1],
3/7,{4}5b/1b-5>3-8[2:1],{8}5,6,
{4}7-4[8:1],7,2-6[4:1],{8}6>4-1[8:3],7,
{4}8,{8}7,6,5-2[8:1],,,1h[8:3],
{16},,,,3,4,5,6,1/7,2,3,4,{4}5w1[8:1],
5,7/3,1/5-1<7-4[2:1],{8}1,2,
{4}3-8[8:1],3,5<7-3[2:1],{8}1,2,
3>1-6[8:3],4,,Cf,{16},,,,4,3,2,1,
6,5,4,3,8,7,6,5,{4}1-3[8:1],1-7[8:1],
1,{8}2,3,{4}4b/8b-4<6-1[2:1],{8}4,3,
{4}2-5[8:1],2,7-3[4:1],{8}3<5-8[8:3],2,
{4}1,{8}2,3,4-7[8:1],,,8<1[8:5],
,,{4}Cf,,,,5/7,
4/2h[4:1],{16}5,6,7,8,
3,4,5,6,1,2,3,4,{4}1-5[8:1],{8}1,8-6[8:1],
,8,2,3,4-7[8:1],,,8,
{4}8h[4:1],{16}6,5,4,3,8/2,7,6,5,{4}4w8[8:1],
{2}4,{4}4/7-4[8:1],7/2-5[8:1],
2/6-8[8:1],6/4>1[8:1],4<7[8:1],4-1[8:1],
4-7[8:1],4,2-5[8:1],2/7-4[8:1],
7/3-1[8:1],3/5<8[8:1],5>2[8:1],5-8[8:1],
5-2[8:1],5,{8}7h[4:1],8,1,2h[4:1],
1,8,7/5,6,5,2/4,3,4,
6/5,7/4,3/8,1/2,{16}2,1,2,1,3,8,3,8,
4,7,4,7,5,6,5,6,{2}4b/7b,
1h[8:3]/2h[8:3],{32}D1/A8/D3/A3,D4/D8/B7/A7/B4/A4/E8/E4,{16}B6/D7/D6/D5/B5/A5/A6/E7/E5/E6f,{1},{4},,,{16},,{64}6h,
4h,{4},,,{16},,,{32},{64}8h,
2h,{4},,,{16},{32},{16}1/7,
2/6,{8}5h[4:1]/3h[4:1],,,5/3,
,,{4}Cf/8z4[4:5]*V25[4:5],,,,,,,,4>1[8:1],
{32}8b,7b,6b,5b,{4},,,{16},,{8}2>5[8:1],
1,8,7>2[8:1],
6,5,4<7[8:1],3,2,1>4[8:1],8,7,
{4}6-2[8:1],6,{8}7,8,1,2-7[8:1],
3,4,5,5q1[8:1]*p1[8:1],,5,{16},,2/8,3/7,
{2}6bv1[8:1]/4bv1[8:1],{8}7<4[8:1],8,1,2<7[8:1],
3,4,5>2[8:1],6,7,8<5[8:1],1,2,
{4}3-7[8:1],3,{8}2,1,8,7-2[8:1],
6,5,4,4,,3,{4}3<2[4:1],
{24}E4,E5,E6,E7,E8,E1,{4}E2,{16}7,3,7,3,7,3,7,3,
6,5,4,3,2,1,8,7,2,6,2,6,2,6,2,6,
3,4,5,6,7,8,1,2,7,3,7,3,7,3,7,3,
6,5,4,3,2,1,8,7,2,6,2,6,2,6,2,6,
3,4,5,6,7,8,1,2,{8}8b-4[8:1],8,2b-5[8:1],2,
{16}5,6,7,8,4,3,2,1,{8}7b-4[8:1],7,1b-5[8:1],1,
{16}5,6,7,8,4,3,2,1,{32}7bx/8bx,6,5,4,{8}3,{32},,,,2bx/1bx,3,4,5,
{4}6,{16}1,8,1,8,{32}2/7,3,4,5,6,7,8,1,2,3,4,5,6,7,8,1,
2,3,4,5,6,7,8,1,{4}2h[4:1],{8}8,7-2[8:1],,7/5,
{4}4-7[8:1],{8}4/2,1-4[8:1],,1/7,{4}6h[4:1],
{8}2b<7[8:1],7b-3[8:1],3b<6[8:1],6b,
E
