&title=夏夜ノ唄
&artist=平田義久 (feat. 鏡音レン)
&first=0
&des=淼母母母
&lv_5=13+
&inote_5=(103){1},
{24}3,,,4,,,3,,4,,,25,,,6,5,,,5,,,5,,6,
{24}5,,,3,,,2,,1,,,7,,,8,,,2,1,,,38,,,
{24}5,,,4,,,6,,5,,,2,,,3,4,,,5<8[12:1],,,4,,4,
{4}5>1[12:1]/3h[24:2],8h[24:2]/5<8[12:1],5/2h[24:2],{16}1-5[12:1],,4,,
{24}8b/1b,,,6,,,7-4[12:1],,2,8,,1,7,,,3,,,2,,8,1,,6,
{24}5-1[12:1],,,7-3[12:1],,,5<8[12:1]*>2[12:1],,,7,,,5,,,,,,8-4[12:1],,,5,,,
{24}81,,,3,,,2-5[12:1],,7,1,,8,2,,,6,,,5-1[12:1],,,2-5[12:1],,,
{24}5<4[8:2],,,2,,,,,,,,,6z2[16:3],,,,,,,,,,,,
{24}Cf,,,,,,,,,,,,,,,,,,8,,,,,4,
{24}3b/5b,,,4b/6b,,,C,,,1,,2,,,,8,,,3,,3,4,,,
{24}2b/5bqq4[24:5],,,7b/4b,,,6,,,,,5<8[12:1],,,,2,,,1w5[12:1],,,,,,
{24}1b>8z4b[2:1],,,,,,,,,,,,,,,,,,8b,,,,,,
{24}65,,,84,,,2,,2,1,,3,4,,6,5,,7,8-4[12:1],,,2h[24:3],,,
{24}8,,,3,,,6,,6,5,,7,8,,2,1,,7,8-4[12:1],,,2>4s8[24:12]/6>4z8[24:12],,,
{24}8,,,,,,,,,,,,,,,,,2h[24:5],,,,,,,
{24}1b/B8f,,2b/Cf,,3b/B4f,,,,7b/A8f,,6b/Cf,,5b/A4f,,,{48},,,,,4x,{24}5x<8[12:1],,2,,,,
{24}5b/8,,,1-5[12:1],,3,4,,2,1,,3,,,4,3,,4,5<8[12:1],,4,3qq5<4[8:4],,,
{24}5,,,3,,,,,,,,,5,,,7,,,1,,7,4,,,
{24}2/5<8[12:1],,3,4,,2,5,,4,,,,6/1>4[12:1],,7,8,,6,1,,8,,,,
{24}2/5<7[12:1],,3-8[12:1],4,,2,5,,3,,,,6/1>4[12:1],,7-3[12:1],8,,6,1,,7,,,,
{24}4b/5b,,,3,,3,4,,4,1,,1,6,,6,5,,5,8<5[12:1],,8,2pp8<3[8:3],,,
{24}8,,,2,,,,,,,,,6,,6,5,,5,4,,4,3,,,
{24}2/1-5-7[6:1],,3,4,,2,1,,3,,,,7/8-4-2[6:1],,6,5,,7,8,,6,,,8,
{24}1,,6,5,,8,1<6[12:1]*p5[12:1],,4,3,,,1w5[12:1],,,,,,1,,,,,,
{4}2bh[4:1],B6,4h[4:1],B8,
{4}6h[4:1],B2,8h[4:1],B4,
{24}3,,,{48}3,,,,4x,,B2,B1,,,,,,,,,,,{24}6,,,{48}6,,,,5x,,B7,B8,,,,,,,,,,,
{24}3,,,2,,,1<6[8:1]*>4[8:1],,,,,8,1-5[8:1],,,,,,1,,,,,,
{24}2,,,{48}2,,,,1x,,B3,B4,,,,,,,,,,,{24}7,,,{48}7,,,,8x,,B6,B5,,,,,,,,,,,
{24}3,,3,{48}4,,,,2x,,B3,B4,,,,,,,,,,,{24}6,,6,{48}5,,,,7x,,B6,B5,,,,,,,,,,,
{24}3,,3,{48}4,,,,1x,,B1,C,,,,,,,,,,,{24}6,,6,{48}5,,,,8x,,B8,C,,,,,,,,,,,
{24}3h[12:1],,,,,4,5h[12:1],,3,,,7,1h[12:1],,8,2,,7,1-5[12:1],,2,8,,7pp4>5[24:13],
{24}1b,,,,,,,,,,,,,,,,,,3-8[12:1],,17,,,,
{24}3b`E3f,,,7,,,65,,7,8,,6,5,,7,1,,6,4,,8,3,,5,
{24}2-6[12:1],,7,4,,6,2,,7,,,7,8-3[12:1],,5,4,,7,8,,6,,,2,
{24}1-6[12:1],,4>2[12:1],5,,2,1,,4,,,6,5-1[12:1],,7,4,,,45,,2h[6:1],,,,
{24}8b-4[12:1],,2>5[12:1],1,,3,8,,2,,,6,5-1[12:1],,7<4[12:1],8,,6,5,,7,,,3,
{24}4,,4,1,,1,6,,6,5,,5,8,,8,6,,6,4,,4,2,,2,
{24}8-5[12:1],,3-8[12:1],5,,2,8,,3,,,7,1-4[12:1],,6-1[12:1],4,,7,1,,6,,,2,
{24}8,,3,5,,4-1[12:1]*-7[12:1],6,,3,5,,4,,,,8,,2,1-5[12:1],,3,4-6-3-7-2-8[24:19],,2,
{1}1,
{24}E1f`8xz4>5[8:5]/1xs5[8:2],,,,,,,,,,,,,,,,,,,,,,,,
{24}1b/5b,,6,2,,5,1,,4,8,,5,2,,5,7,,5-1[12:1],3,,5,6,,5,
{24}4h[6:1],,,,7-4[12:1],,3,,2,,7/1-5[12:1],,2,,3,,4-8[12:1]/1,,3,,2,,1<6[12:1]/4,,
{24}2,,3,,4/1,,5-8[12:1],,,C,,,5/1-4[12:1],,,B7/C,,,15,,,B2/C/B6,,,
{24}2,,2,4,,4,5,,5,7,,7,5,,5,4,,4,2,,,15,,,
{24}3b/4b<7[12:1],,2,1p5[12:1],,,4w8[12:1]/3,,,1,,,4,,,,,,78,,6,5,,7,
{24}8-4[12:1],,,6/5>2[12:1],,,8<5[12:1],,,5,,,8,,,,,,2/5-1[12:1],,3,4,,,
{24}5/2-5[12:1],,,,,,2/7q4[8:1]*>3[8:1],,,6,,,7,,,,,,65,,7,8,,,
{24}2bh[16:2]/4,,,1,,3>8[8:1],,,4,4,,3,5,,6,,,7,8,,,15,,,
{2}3qq5[8:6]*v4[8:6]/4,,,E
&inote_6=
