&title=ブレインロット feat. 重音テト
&artist=東京真中
&first=0.19
&des=志熊酒瀬
&lv_5=13+
&inote_5=(135)
{16}75,,,7h[16:5]/5h[16:5],{8},,,{16}6,5,{24},,5,4,,,
{16}24,,,2h[16:5]/4h[16:5],{8},,,{16}3,4,{24},,4,5,,,
{16}75,,,7h[16:5]/5h[16:5],{8},,,{16}8,1,{24},,1,2,,,
{16}38,,,3h[16:3]/8h[16:3],{8},,{4}4^1[8:1]/5^8[8:1],45,
{8},8,1,7,5-3[8:1],4,6^8[8:1],7,1^4[8:1],2,7v5[8:1],6,5v2[8:1],,,,
{8}7,6,5-7[8:1],4,2^5[6:1],3,6,7,8-3[8:1],3,8-5[8:1],5,8^3[8:1],3,8,,
{8}6/5h[8:1],7,4h[8:1]/3,2,7h[8:1]/8,6,7h[8:1]/1,5,7h[8:1]/2^4[8:1],4-1[8:1],6,5-8[8:1],6,3,4qq7[2:1],3,2h[4:2],,,,,
{8}1,2,43,,48,7,65,
{8}5-8[8:1]/4-1[8:1],,45,,
{4}6h[4:7],8,,8,,7,,5,3h[4:7]/4,1,,1,,2,,4,5/6h[4:7],8,7,5,7,1,3,4qq5[1:1]*<8[1:1],,,,,
{4},,4h[4:1],3,
{4}1V35[6:1]/6h[8:1],6h[8:1],8V64[6:1]/3h[8:1],3h[8:1],{8}2,2,3,4,3h[8:1]/6h[8:1],,8h[8:1]/1h[8:1],,
{4}1<5[6:1]/2h[8:1],2h[8:1],8>4[6:1]/7h[8:1],7h[8:1],{8}6,6,5,4,2h[8:1]/6h[8:1],,8h[8:1]/1h[8:1],,
{4}2V46[6:1]/8h[8:1],8h[8:1],7V53[6:1]/1h[8:1],1h[8:1],{8}2,2,1,8,37,37,2qq3[2:1]/6qq7[2:1],26,
{8},,,,,6,5,4,,5,4,3,4-8[8:1]/5-1[8:1],,4b/5b,,
{8}3-5[8:1],4,6-8[8:1],8-2[12:1],3-5[8:1],4,6-8[8:1],8-2[12:1],3,4,5,6,
{24}74,,6,5,,,3h[8:1]/7h[8:1],,,,,,
{8}6-4[8:1],5,3-1[8:1],1-7[12:1],6-4[8:1],5,3-1[8:1],1-7[12:1],6,5,4,3,
{24}26,,3,4,,,1h[8:1]/5h[8:1],,,,,,
{8}3-5[8:1],4,6-8[8:1],8-2[12:1],3-5[8:1],4,6-8[8:1],8-2[12:1],3,4,5,6,
{24}75,,6,5,,,2/4pp8[2:1],,3,4,,,
{4}2h[2:1],,
{8},12,28,27,,86,16,26,3v6[8:1],,3/4V28[8:1]*p7[8:1],,,,
{16}6,,3,,{24}1V75[6:1]/2,,,,,3,{16}1,,2,,{24}1v4[8:1],,,,,6,{16}1,,7,,{8}3>7[8:1]/8v5[8:1],4,,,1,2,
{16}34,,6,,{24}8>4[6:1]/7,,,,,6,{16}8,,7,,{24}8p4[8:1],,,,,3,{16}8,,2,,{8}6/1^4[8:1],5q1[8:1]/2,1pp3[8:1]*qq7[8:1],,,,
{16}5,,2,,{24}4pp6[6:1]/3,,,,,2,{16}4,,3,,{24}4v1[8:1],,,,,7,{16}4,,6,,{8}2V46[8:1]/5p1[8:1],8,,,4,3,
{16}82,,7,,{24}5p1[6:1]/6,,,,,6,{16}5,,7,,{24}5-1[8:1],,,,,2,{16}5,,3h[32:1],3h[32:1],8,7,6,5,8,1,2,3,
{4}5h[4:6],8,,6,,7q4[4:1],,5,4h[4:6]/6,1,,3,,2<6[4:1],,4,3/5h[4:6],8,6,4,7,1,3-7[8:1],4qq8[1:1]*qq6[1:1],,,,,
{4},,7-2[12:1],7b,
{8}3h[4:1],8,,8,4h[4:1],6,,6,2h[8:1],4h[8:1],5h[8:1],7h[8:1],{24}1,,7,3,,5,4,,6,2,,7,
{8}1b-3[8:1],3-5[12:1],6-8[8:1],8-4[12:1],1-3[8:1],3-5[12:1],6-8[8:1],8,
{8}3,2,1,8,{24}57,,3,4,,,2h[8:1]/8h[8:1],,,,,,
{8}8-6[8:1],6-4[12:1],3-1[8:1],1-5[12:1],8-6[8:1],6-4[12:1],3-1[8:1],1,
{8}6,7,8,1,{24}24,,1,8,,,7/5qq1[2:1],,6,4,,,
{4}3h[4:2],,{8},78,16,25,,12,38,47,5-1[8:1]/6,,5/4>8[8:1]*<8[8:1],,,,
{8}1-3[8:1],3-5[12:1],6-8[8:1],8-2[12:1],3-6[8:1],4,
{8}6,7,8,1,{24}42,,6,5,,,7h[8:1]/1h[8:1],,,,,,
{8}8-6[8:1],6-4[12:1],3-1[8:1],1-7[12:1],6-4[8:1],4-2[12:1],1-5[8:1],8,
{8}6,7,8,1,{24}26,,4,5,,,7h[8:1]/3h[8:1],,,,,,
{8}1^3[8:1],3-5[12:1],6^8[8:1],8-2[12:1],3-5[8:1],5^7[12:1],8-4[8:1],1,
{8}3,2,1,8,{24}75,,8,1,,,2qq7[2:1]/4,,1,8>4[3:1],,,
{8},,,,,56,45,34,,75,45,24,1qq7[6:1]/6<2[6:1],,,,
&inote_6=
