&title=はいよろこんで
&artist=こっちのけんと(词/曲) / GRP(曲)
&first=0.428
&des=LLL.YYY.RRR
&lv_5=13+
&des_5=LLL.YYY.RRR
&inote_5=
(147){4},,,,,,,,,,,,{2}5h[4:3]/4h[8:3],
{8}3h[4:3],,,6h[4:1],
,,,7,{4}8qq8pp1[2:1],8,
{2}4h[2:1],{4}8h[4:1],2,
,1s5[4:1],{2}5,
{8}6h[8:1],5,7h[8:1],5,4/6,6/4,{4}5h[4:3]/3h[1:1],
,,,,{2}8/7v4[4:3],
{4}8-3[4:1],8,
{32},,,,,,,,,,,,,,,,2,3,{16}4h[16:5],,,,,,,{8}8h[8:1],
4,7h[8:1],3,6-2[8:1],2,{4}6,
,3-1[8:1]/4-8-6[4:1],{8},,,,1b/7b,
{16}6,5,{8}6,3,1v4[8:1],4>8[8:1],{4}1,
5h[8:1],{16}4,5,{8}4,1v6[8:1],6<2[8:1],{4}1,
5h[8:1],4h[8:1],{8}3h[8:1],6,4h[8:1],7,
{2}5-1[8:1]/8-6[8:1],2v5[8:1]/5-7[8:1],
{4}8b/4-8[8:1],4/7-5[8:1],7/1-3-5[8:1],1/7h[4:1],
{8},3h[8:1],8h[8:1],4h[8:1],1h[8:1],5h[8:1],{4}1,
{8}8/4-2-8[8:1],7,6,5,7/4v7[8:1],8,1,2,
3-8[8:1],4,5,6,7<4[8:1],1,{4}2/7,
{16}3,4,{8}3,5,6,7h[8:3],4h[4:1],,,6/3,
5/2,{4}1h[8:5]/4-2-7-5[8:3],{8},,,,2,
2,4,4,3,{16}5,4,{8}5,{16}3,4,
{4}3-6[8:1],3/7-2[8:1],{2}7,
{4}5h[8:1]/7>3[2:1],5h[8:1],{2}5h[8:1],
{1}4h[4:3]/2<6[2:1],
{8}4,4,8,8,8,{16}4,5,{8}4,6,
8,4,4,8h[48:1],4h[48:1],4h[48:1],8,4,
8b<5[8:1],7,8/4-1[8:1],3,{4}4/7h[4:1],{8}8-4[8:1],7-5[8:1],
8,7,{4}3h[4:1],{2}4pp4[4:1],
{8}1b>4[8:1],2,1/6-8[8:1],5,{4}6/1h[4:1],{8}6-2[8:1],2-5-7[4:1],
6,1b,,2,{4}4w8[8:1],4,
{8}2-5[8:1],1,2/7v4[8:1],8,{4}7/1>5[8:1],{8}1/6,7,
8v5[8:1],5<1[4:1],{4}8,{8}2,3,{4}4,
{8}2-4[8:1],1,2/8v5[8:1],7,{4}8/1,{8}7-5[8:1],8,
7/1-5[8:1],2,{4}1/8,{16}3,4,3,4,{4}1b,
{16}6,5,{8}6,{16}3,4,{8}3,{16}1,8,2,7,3,6,4,5,
{4}4h[4:3],{8}8,6,7,5,,,5-1[8:1],
1<5[8:3],{4}5,2h[8:1],3h[8:1],
4h[4:3],{8}5h[48:1],7h[48:1],6h[48:1],8h[48:1],,,{4}4-1[8:1]/1<7[8:1],
4/1,{8}8,8,5,5,
{2}5h[4:1]/6<2<6[2:1],4h[4:1],
{16}3,2,{8}4,{16}6,7,{8}5,{4}4qq4[4:1],4pp4[4:1],
{8}8,8,8,3h[48:1],3h[48:1],3h[48:1],8,8,
7b,{16}3,2,{8}1h[4:1],6,{4}7V53[4:1],3V57[4:1],
{8}8b,{16}1,2,{8}3h[4:1],8,{4}1V75[4:1],5V71[4:1],
{8}1b,{16}2,3,{8}4h[8:1],2,5h[8:1],8,4h[8:1],8,
{4}7/3>7[4:1],3/7<3[4:1],{2}3-8[8:1],
{8}5,{16}3,4,{8}3,2,{4}1-5[8:1],6-8[8:1],
4-2[8:1],1-5[8:1],4h[4:1],6,
{8}8b,{16}7,6,{8}5h[8:1],3,2h[8:1],6,7h[8:1],1,
{4}8qq8[4:1],4qq4[4:1],{2}4,
5/4>6[2:1],6>1[2:1],
1<6>5[2:1],5>2[2:1],
2<7[2:1],7<4[2:1],
4>8[2:1],8<3[2:1],
{4},8h[4:1],2,2-6[8:1],
{1}8-5[8:1]*-3[8:1],
{2}1>5[2:1],5<1[2:1],
{1}1-6-3[2:1]*-5-3[2:1],
{16}6,5,{8}6,3v8[8:1],7h[2:1],3,,,1,
{1}2h[8:7]/8v5v3[8:5],
{8}1-5[8:1],5-1[8:1],{4}1,{8}8,7,6/2,5/1,
{4}4-7[8:1]/8-3[8:1],4-1[8:1]/8-5[8:1],{2}8/4,
{4}5h[8:1]/6-8-3[2:1],5h[8:1],{2}5h[8:1],
{1}4h[4:3]/2-8-6[2:1],
{8}3,3,7,7,2/1h[8:1],{24}3,4,5,{8}6,8,
{16}3,2,{8}4,{16}6,5,{8}7,{16}3,4,3,4,2,4,{8}3,
{16}5,4,5,4,5,3,5,3,5,2,5,2,5,1,5,1,
{4}5h[4:1],{16}1,1,6,6,2,2,7,7,{4}4h[4:1],
{8}8,8,8,3h[48:1],3h[48:1],3h[48:1],7b/2h[48:1],7b/2h[48:1],
8/1b-4-2[4:1],4,1/8-6[8:1],5,{4}8,{8}4-1[8:1],1,
4/7-5[8:1],8,{4}7>3[4:1],{2}3b>7[4:1],
{8}3bv8[8:1],2,7v4[8:1],6,{4}7,{8}1-5[8:1]/8-4[8:1],5/4,
{4}8<6[8:1]/1>3[8:1],8/1,1qq1[4:1],1bpp1[4:1],
{8}5,5,6,7,{4}8,{8}1-5[8:1],7-3[8:1],
1>8[16:3],7,{4}1,1,8,
{8}1b>4[8:1],2,1/5-8[8:1],6,{4}5/2h[4:1],{8}1-5[8:1],2-4[8:1],
1,2,{4}6h[4:1],5-2[8:1],5b,
{16}6,5,{8}7,{16}3,4,{8}2,{16}1,8,4,5,2,7,3,6,
{8}4h[4:3],5,8,6,1,7,,,{4}2-4v5-7[2:1],
2/7,{8}1,1,8,8,
{4}7h[4:3],{8}1h[48:1],4h[48:1],2h[48:1],5h[48:1],{4}3h[48:1],
6h[4:1]/2-7[8:1],2,{16}1,6,4,5,3,6,2,7,
{8}1-7[8:1],4,1-3[8:1],6,1-6[8:1],4,{4}1b,
{16}5,6,7,8,4,3,2,1,{4}8qq8[4:1],8pp8[4:1],
{8}5,5,5,4h[48:1],4h[48:1],4h[48:1],5,5,
{4}6b/2>6[4:1],6p2[4:1],2<6[4:1],6<2[4:1],
{8}4,4,5,5,{4}6-1[8:1]/2-6[8:1],6/2,
5v2[8:1]/8-6[8:1],8/5,{8}1,1,5,5,
8-4[8:1],4V28[4:1],{4}8,{8}6,6,{16}5,8,{8}5,
2-4[8:1],1,7-5[8:1],8,2-4[8:1],1,7-5[8:1],8,
3-1[8:1],4,6-8[8:1],5,3-1[8:1],4,{16}7,6,{8}5b,
{16}3,4,{8}3,{16}6,5,{8}7,2/1h[4:1],{24}3,4,5,{8}6,8,
1,5,5,1h[48:1],5h[48:1],5h[48:1],{12}1b,,5b,
,5b,
E
