&title=SoulStone -闇喰イサァカス団-
&artist=葉月ゆら
&first=0
&des=k
&lv_5=14+
&inote_5=(150)
{16},
{64},
{12},,,1,5,2,6,3,7,4,5,1,5,2,6,3/7V14[4:1],,,
{4}4V68[4:1],8V25[4:1],2,
{4}1bw5[8:1]/E5f,,7<5[8:1]/B3/B4/E4f,,2<8[8:1]/B6/B5/E6f,,
{8}4/B8/B7/E8f,,
{12}1,5,2,3b-1[8:1]/B5/B4/E5f,,,{4},
{4}6<1[8:1]/B1/B2/E2f,,2/B5/B6/E6f,
{16},,4,5,3>1[8:1],,,,{4},
{8}3/5,3,3/6,3,3/7,3,3/8,3,7/4,7,7/3,7,7/2,7,7/1,
{16}7,,1-3[8:1]/7,,6,6,1-7[8:1],,4,4,1v4[8:1],,6,6,1,,5,5,
{32}2,3,4,5,6,7,8,1,2,3,4,5,6,7,8,1,2bv5[8:1],,{8},{16},
{8}2/8,,7,4/6,5v8[8:1],4,5/2-7[200#6:1],
{16},2/6v1[200#6:1],,,6/3,,
{8},2-4[8:1],6,2-8[8:1],5,2-6[8:1],7,2,5,
{8}7x,8x-2[8:1],4,8/3-7[200#6:1],
{16},3/5-1[200#6:1],,,5/3,,
{8},2-8[8:1],5,2,6,{16}4,5,4,5,3/6,,
{8}2,5/3,4v1[8:1],5,4/7v2[200#6:1],
{16},7/3v8[200#6:1],,,6/3,,
{8},7<6-4[8:1],3,7>8-2[8:1],4,7-3[8:1],2,7,4,
{8}2x,1x-7[8:1],5,1/6-2[200#6:1],
{16},6/4-1[200#6:1],,,4/6,,
{8},1x-3[8:1],8x-6[8:1],1,8,{16}4,5,4,5,3/6,,
{8}7h[2:1]/2h[4:1],,,1,2,
{16}3,3,,,
{8}5,4qq4pp4[2:1],,4,,8,,,
{8}5,4h[4:1]/6h[8:3],,,2,3,
{16}4h[16:3],5h[8:1],,,
{8}2,
{16}3,4,3,2,3,4,3,2,3-7[8:1],,,,5/3,,
{8},2h[4:1]/6h[4:1],,,3,4,
{16}5h[16:3],7h[8:1],,,
{8}B2/B3/E3,/B6/B7/E7/Ch[8:3],,,
{16}7,6,5,,
{8},8,,1-6[8:1],,1-4[8:1],,
{16}1s5[200#6:1],,,1,,,8,,7-5-8-3-7[4:3],,
{8},,,,,,
{8},,3,4,5<2[2:1],6,,,,,3,4,5V71-5[2:1],6,,,,,2,3,4,5/6V82[2:1],,6,3,2-6[4:1],,6<2[3:1],,1,,,,
{8}3x/4x,2,6/5,7,3/4,2,6/5,7,1/2,4,7/8,5,1/2,4,7/8,5,
{32}2,3,4,7,6,5,1,2,3,4,1,2,3,8,7,6,8,7,6,5,8,1,2,3,4,5,6,7,8,1,2,3,
{8}4bx,7/5,2/4,6/5,4/7,8/3,6/3,{16}4,5,{8}3h[4:1]/6h[4:1],,,,Cfh[4:1]/B2/B3/B7/B6,,,,
{16}1,8,1,8,2,8,2,8,4,8,4,8,3,8,3,8,2,4,2,4,1,5,1,5,8,6,8,6,8-4[8:1],,
{8}1,8/7-3[8:1],6,7/1-5[8:1],2,1/8-6[8:1],7,8/2,1,
{32}1,2,3,4,5,6,7,8,1,2/7,6,5,4,3,2,1,
{8}8x/B4f/B3f,B4/6x,3x/B5,4x/B7,
{16}4,6,4,6,3,7,3,7,2,8,2,8,1,8,1,8,2,7,2,7,2,5,2,5,8,6,8,6,4,6,4,6,2v5[200#6:1],
{16},,2/8-4[200#6:1],,,1>4[300#4:1]/8,,1v6[200#6:1],,,1,,,8,,7,
{16}1,7,3,7,
{16}1,7,3,7,,{8}5,4/6,5/7,
{16}4,5,4,5,3,5,3,5,1,5,1,5,8,6,8,6,1,5,1,5,2,4,2,4,2,8,2,8,1,7,
{8}2,8/2-6[8:1],3,2/8-4[8:1],7,1-6[8:1]/8,2,7/1,8,
{32}2,3,4,5,6,7,8,1,2,3,4,5,6,7,8,1,2,3/7,6,5,4,3,2,1,8,7,6,5,4,3,2,1,
{8}8/4,2/5,7/4,3/4,7/5,1/2,1/7,2/4,6/5,1/3,7/8,6/5,4/3,2/1,8/7,
{16}2/6,3/7,4/8-4[200#6:1],,,1-5[200#6:1]/8,,,7-3[300#4:1]/1,,7V13[200#6:1],,,7,,,5,,
{12}2x/4x,3,3,2/4,3,3,2/4,,
{24},{12}3/5,4,4,3/5,4,4,3/5,
{24},{12},4/6,5,5,4/6,5,5,4/6,
{24},{12},5/7,6,6,5/7,6,6,5/7,
{8},8/2v5[210#6:1],{36},,{12}2/7,6v1[220#6:1],,6/4,3,,{36},
{12}5/3v8[220#6:1],,3/6,7v4[220#6:1],,7/1,2,,{32},
{24}E1,B8,B7,E7,E5,B4,B3,E3,E7,B6,B5,E5,
{32}1,2,3,4,5,6,7,8,1,2,3,4,5,6,7,8,1,2,3,4,5,6,7,8,1b,,
{16},{64},
{20}1bx,2,3,8,7bx,6,1,2bx,3,8,7,6bx,5,1,2,3bx,4,5,6,7,8,6,7,8,1,2,3,
8,7,6bx,1,2,3bx,8,7,6,5bx,1,2,3,8bx,7,6,1bx,2,3,4,5,6,7,8,1,2,3,4,5,
6,1bx,2,3,4,5bx,6,7,8,5bx,6,7,8bx,1,2,3bx,4,1,2,3bx,4,5,6bx,7,8,6,7bx,8,1,2,3bx,6,7,8bx,1,2,3,4bx,5,6,7bx,8,1,2,3,4bx,
{8},,,{64},,,
{20}1x,2x,3x,4x,5x,6x,7x,8x>1>2>3<4<5<6<7>8>1[5:40],1x,2x,3x,4x,
{1},E2,E3,E4,E5,E6,E7,E8,Cf/E1/B8/B1,
{2},{4},{6},{14},
{1}2h[4:3]/8>8[2:1],{12}7h[8:2]/1<1[2:1],,,,,,1x,8x,7x,6x,5x,4x,3xh[4:1],{4},{8},{24},
{2}2h[4:1]/7h[4:1],1h[8:3]/8h[8:3],
{16}4,5,4,5,3b/6b,,
{8},1/E5,1/E6,1/B4,1/B6,1/B3,1/B7,1/E3,1/E8,8/E5,8/E4,8/B5,8/B3,8/B6,8/B2,8/C,
{16}1/6,2/7,3-1[200#6:1]/8-6[200#6:1],,,3-5[200#6:1]/8,,,3x-1[300#4:1],,3x,,,5xh[8:1],,,6x,,{32}1,2,3,4,5,6,7,8,1,2,3,4,5,6,7,8,{8}1w5[8:1]/5,,1,,
{16}2,1,2,1,3,8,3,8,4,7,4,7,5,6,5,6,8,7,8,7,1,6,1,6,2,5,2,5,3-8[8:1],4,
{8}2,3/5v2[8:1],6,5/4v7[8:1],3,4/5-1[8:1],6,4/5,3,{32}1,2,3,4,8,7,6,5,1,2,3,4,5,6,7,8,
{8}1/5,2/3,4/6,5/7,
{16}3b,5,4,5,4,5,4,5,B2f,5,4,5,4,5,4,5,1b,5,4,5,B8f,5,4,5,1b,5,4,5,B3f,5,4,5,2b-5[200#6:1],
{16},,2/7-3[200#6:1],,,4-1[300#4:1]/7,,4,,,8-4[200#6:1],,,8/7,,5,,
{8}3x,2xv5[8:1],1,2/8v5[200#6:1],
{16},8/3v8[200#6:1],,,6/3,,
{8},2-8[8:1],7-5[8:1],2-4[8:1],7-1[8:1],2,7,,
{32}1,2,3,4,5,6,7,8,1,2,3,4,5,6,7,8,1/5,2,3,4,5/1,6,7,8,1/5,2,3,4,5/1,6,7,8,1w5b[8:1]/5,
{10},,,{12},,
{16}2,1,2,3,2p6[8:1]*q6[8:1],,{8},2/Cf,
