&title=LABYRINTHOX
&artist=BlackYooh vs. siromaru
&first=0.075
&des=风音vslian
&lv_5=14+
&lv_6=14+
&inote_5=(200)
{1},,{32}1b/8b,27,36,4h[32:45]/5<3[32:101],,,,,
{8},,,,,,{1},B4,C1,{2}4-2-8-6<8>2>4[4:13]/5,,,B5,B4,,C1,,
{8}2h[4:1]/B8,,B7,2,B6,,B5/2,,E8,2,E7,,E6/2h[4:1],,E5,,
{8}7h[4:1]/B1,,B2,7,B3,,B4/7,,E2,7,E3,,E4/7h[4:1],,E5,,
{8}6,6,5,5,4,4,3,3,{8}65,7,53,2,34,5,46,37,
{16}2,1,3,8,4,7,5,6,8,7,1,6,2,5,3,4,
{8}1s5[4:1],1,,7,7-3b[8:1],,1h[4:1],,
{32}8b,27,36,45,,,,,{8}27,,{16}2,,8,1,8,,37,,
{8}2-5[8:1]/6-1[8:1],,,,{16}7,,73,62,{4}5v8<7[8:2]/1v4>3[8:2],15,,
{8}E2/B2,B4/E4,,B8/E8,E6/B6,,E3/B2,E7/B6,B1/E1,E5/B5,{4}C1,
{32}8b/1b,27,36,45,,,,,{8}27,,{16}2,,8,1,8,,37,,
{8}2-5[8:1]/6v1[8:1],,,,{16}8,,84,37,{4}6/2-6[8:1],
{16}2,,,,7,5,7,4,{8}6,53,5,46,{8}3b,2b,
{4}2hb[8:1]/1hb[8:1],7hb[8:1]/8hb[8:1],5hb[8:1]/6hb[8:1],
{8}2b-5[8:1]/4b-8[8:1],,24,,{16}47,,74,63,52,14,,,{8}4-8[8:1]/1-5[8:1],,,,
{8}2>5[8:1]/6v1<7[8:2],37,26,,{16}B4,B3,B2,B1,B5,B6,B7,B8,
{8}E4/B3,B1/E2,,B5/E6,E8/B7,,E3/B3,E7/B7,B5/E5,E1/B1,{4}C1,
{8}2-5[8:1]/6-1[8:1],,{8}26,,{16}2,8
,2,,37,,37,,
{8}2>8[4:1]/6,,6h[2:1],,{16},1,2,3,{4}4,
{8}26,26,37,37,48,48,15,51,{8}1b-5b[8:1],,2,2b-6b[8:1],,3,3b-7b[8:1],,
{2}1b,{12}1,6,8,7,1,,
{16}25,,25,,3,4,3,,47,,6,5,6,,1,,{16}28,,28,,6,5,6,,25,,3,4,3,,8,,
{4}7-3[8:1],8-4[8:1],1-5[8:1],2-6[8:1],
{2}E8/B8/E1,{12}2,5,1,6,8,7,
{16}16,,16,,2,4,3,,48,,7,5,6,,1,,{16}28,,28,,6,5,7,,25,,3,4,2,,8,,
{4}1-5[8:1]/6-4[8:1],1>4[8:1]/6<1[8:1],1w5[8:1]/6,1,
{1}3-1-7q1b[2:15]/7-5-3q5[2:15],,,,,,,,
{4}3bx/6hbx[2:3],,5,,4,3,3,,{8}C,,E2,E3,E4,,E8,E7,{8}E6,,,,4,5,2,7,
{4}1>3<6[2:1],3,6q3[4:1],3,8<6>3b[2:1],6,3p6[4:1],B5/B4/C1,
{2}1,2h[4:1]/7h[4:1],3h[4:1]/6h[4:1],4h[4:1]/5h[4:1],
{1}B2/B3/B7/B6/Cf,
{4}1hx[4:1]/5,
{16}7,6,5,4,1,2,3,4,8-5[8:1],,,,8bx/5-3v2-8[4:2],,,,,,,,,,,,,,,,7hx[4:1]/3,,,,1,2,3,4,7,6,5,4,1v4v7[4:2],,,,1bx/5bhx[4:3],,,,,,,,,,,,,,,,
{16}4hx[4:1]/8,,,,8,1,2,3,4,5,6,7,8/1s5[4:2],,,,1bx/6bx,,,,6bhx[4:2],,,,,,,,,,,,
{16}1/7,,,2,8,,1/3,,1-5[8:1]b/3,,,,Cf,,,,
{8}6hx[8:1]/4-2[8:1],,6h[8:1],,6h[8:1]/5-1[8:1],,6h[8:1],,3xh[8:1]/4-8[8:1],,3h[8:1],,3h[8:1]/5-7[8:1],,3h[8:1],,8xh[8:1]/2-4[8:1],,8h[8:1],,8h[8:1]/5-1[8:1],,8h[8:1],,2hx[8:1]/8-4[8:1],,2h[8:1],,2h[8:1]/5-7[8:1],,2h[8:1],,1/8,1,2/7,7,3/6,3,4/5,5,
{8}3/4,3,2/5,5,1/6,1,7/8,7,
{16}4,8,3,6,4,7,1,8,2,6,3,7,1,5,2,6,B4f,,B6f,,B2f,,B8f,,
{32}1x,2,3,4,5,6,7,8,1-5[8:1]b/5,,,,,,,,
{16}1/6<1[8:1],,,,6/4-8[8:1],,,,4/7w3[8:1],,,,7,,,,
{16}6,5,7,,{32}4h[8:1]/E1,B1,B2,E3,,,,,{16}6,5,7,,{32}4h[8:1]/E1,B1,B2,E3,,,,,
{16}8h[8:1],,5,5,7-4[8:1],,4V68[8:2],,7,,3,,1h[8:1],,,,
{24}1,2,3,4h[8:1],,,
{16}7,,7,,35,,1,,3/5-1[8:1],,7,,
{16}5/2>5[8:1],,,,2/8-4[8:1],,,,8/2w6[8:1],,,,2,,,,
{16}3,4,2hx[8:5],,E8,,E6,,C,,E2,,E4,,,,
{16}17,,8,8,8,,{8}17,17,68,57,46,
{16}3b-8b[8:1]/5b,,,,3b/5b-1b[8:1],,,,2b<7b[8:1]/5b,,,,2b/6b-1[8:1],,,,
{16}6/4>1[8:1],,,,
{16}8/4,7,6,5,4x/8-4[8:1]*-5[8:1],,,,8,,,,
{16}3,4,2,,{32}5h[8:1]/1x,E1,B8,B7,E7,,,,{16}3,4,2,,{32}5h[8:1]/1x,E1,B8,B7,E7,,,,
{16}1h[8:1],,4,4,2-5[8:1]b,,5>4-1[8:2],,2,,6,,8-4[8:1],,,,
{8}8/2-6[8:1],,28,,7-4[8:1]/5-1[8:1],75,75,,
{16}2,,2h[8:1],,4,5,6,7,1,2,3,4,5/6,7,8,1,4,,4h[8:1],,1,8,7,6,4,3,2,1,8/7,6,5,4,1,,1,,1,,1,,1,8,2,7,3,6,4,5,3x/6x,,7,5,6,,1x/7x,,2,4,3,,
{16}5-2[8:1]b,6,7,8,5b,,7-4[8:1],1,8,,7,,1h[8:1],,3,2,4,3,5h[8:1],,4-8[8:1],,6-1[8:1],,4,,6,,2-4[8:1],,,8,2-6[8:1]b,,7,,2b,,7-4[8:1],7,5,,7,,3h[8:1],,1,2,8,1,7h[8:1],,5>2[16:3],,5,,1,8,7,6,1,8,7,6,5,4,3,2,1/7,,6,5,6h[8:1],,4,4,5,3,6,2,7,1,8,2,7x/3x,,2,4,2h[8:1],,5,5,8,7,1,6,2,5,3,4,2b/5b,,6,5,4b/7b,,1,8,2b/7b,,2/7,,3bv1[8:1]/6bv8[8:1],,4/5,,3b-5[8:1]/6b-4[8:1],,,,3b/6b,,,,8b/1,,8b/2,,8b/3,,8b/4,,
{8}8b/5h[4:8],,7,,,,7,,,,7,,,,7,,7hx[4:8],,2,,,,4,,,,6,,,,8,,
{16}2b,1,3,7b,8,6,4bh[16:1],,7b,5,6,2b,1,3,7bh[16:1],,2b,4,3,7b,8,6,2b,2,5b,4,6,2b,4,3,7b,7,
{16}4,8,4,8,3,7,3,7,2,6,2,6,1,5,1,5,
{32}8b,,4,,8b,,4,,8b,,4,,8b,,4,,8b-4[8:1],,1,,2,,3,,8b,,,,,,,,
{2}2h[8:1]/6h[8:1],{12}8,1,7,2,6,,
{16}35,,35,,4,4,4,,57,,6,6,6,,1,,{16}28,,28,,6,5,7,,25,,3,4,1,,8,,
{4}7p3[8:1],8v5[8:1],1v4[8:1],2q6[8:1],
{2}8b,{24}3bx,4,3,4,3,4,3,,,2,,,
{16}3bx/4bx,,4/5,,6,5,6,,4bx/7bx,,1,1,1,,2/8,,
{24}8b/2b,3,4,5,,,7b/1b,6,5,4,,,2b/1b,3,4,5,,,8b/7b,6,5,4,,,
{32}1b,2,3,4,7b,6,5,4,2b,3,4,5,8b,7,6,5,2b,3,4,5,6,7,8,1,2/7b,6,5,4,3,2,1,8,7,6/8,1/5,2/4,3,,
&inote_6=
