&title=Vibes
&artist=Avans
&first=0.02
&des=hongshen
&wholebpm=100.000
&lv_5=13+
&des_5=
&inote_5=(100)
{1},
{16},,,,,,6xz2[16:5],,,,,,,,,,
{16}3bx,,3,,,,3,,3,,,,,,,,
{16}3/5h[8:1],,3,,,,3w7[4:1],,3,,,,,,,,
{16}6bx,,6,,,,6^3[4:1],,6,,,,,,,,
{16}26,,37,,,,1-5[4:1]/5-1[4:1],,37,,,,,,,,
{16}4qq5[4:2]/6,,,,{24}8,,,,,6h[6:1],{16},,,,8,,,,
{16}2/4qq6[2:1],,,,{24}1,,,,,3h[6:1],{16},,,,1,,{24},,,
{16}6/4qq7[2:1],,,,{24}8,,,,,6h[6:1],{16},,,,8,,,,
{16}2/4qq5[2:1]*-6[6:1],,,,,,,,,,,,8,,,,
{24}7/5h[8:1],,,6,,,8,,,2,,2,
4,,,3,,3,8^3[8:1],,,,,,
{24}4h[4:1],,,,,,{48}E6,B6,B7h[24:5],,,,,,,,,,E3,B2,B1h[24:5],,,,,,,,,,{24}8x,,,,,,
{24}2/4h[8:1],,,3,,,1,,,7,,7,
5,,,6,,6,1^6[8:1],,,,,,
{24}4,,,4,,,35,,,26,,,
1-5b[12:1]/7,,5,4,,8,1b,,,,,,
{24}3h/7x<3[2:1],,,,,,,,,,,,
2h,,,,,,,,,,,,
{24}1h/5x>1[2:1],,,,,,,,,,,,
8h,,,,,,,,,,,,
{24}3x>7[2:1]/7h,,,,,,,,,,,,
6h,,,,,,,,,,,,
{24}4x/5b,,,,,1b/3x,,,,6x/8b,,,
{16}4h[8:1]/5h[16:3],,,,{24}3,,,3,,,
{24}71,,,6,,6,5h[8:1],,,4,,,
28,,8,3,,3,4h[8:1],,,5,,,
{24}4bh[24:3]/5xh[8:1],,,,,8b/6x,,,,3x/1b,,,
2/7,,6,5,,3,4,,,7h[8:1],,,
{24}6h[8:1],,,5h[8:1],,,4h[8:1],,,3>5[32:7],,,
2h[2:1],,,,,,,,,,,,
{24}3q5[16:9],,,,,2,,,,8,,,
6,,,,,,,,,,,,
{48}1x/7x,2,3h[24:5],,,,8x,1,2h[12:1],,,,{24},,,8,,,
2qq8b[12:1]/6-8b[12:1],,,,,,2/6,,,,,,
{48}7x/1x,6,5h[24:5],,,,8x,7,6h[12:1],,,,{24},,,78,,,
2-4[12:1]/5-2[12:1],,,,,,2/5,,,,,,
{24}1/5,,,8,,,7-3[12:1]/6,,,5,,,
3-8[12:1]*pp5[32:3],,,,,,,,,,,,
{24}1/4,,1h[8:1],,,8h[4:1],2,,2,,,3h[4:1],
7,,7,,,6,4,,,1,,,
{48}8x/2x,7,6h[24:5],,,,1x,8,7h[12:1],,,,{24},,,1,,,
8pp2b[12:1]/3qq1b[12:1],,,,,,8/3,,,,,,
{24}3/7-3[8:1],,2/6,,,3,7,,,8,,,
1p4[32:3]/5^8[32:3],,,,,,1/5,,,,,,
{24}2/3,,,4,,,1/5-2[32:3],,,7pp4[4:1],,,
5,,,7,,,,,,,,,
{24}1,,,,,,1,,,,,,
1v1b[8:1],,,,,,,,,,,,
{16}1bx/5,,5h[8:1],,3,7,5,,
5^2[8:1],,8,,6,,,,
{16}2/4,,4h[8:1],,3,5,4,,
4v6[32:3]*qq2[32:3],,8,,,,,,
{16}8b/4,,4h[8:1],,6,2,4,,
4^7[8:1],,1,,3,,,,
{16}7/5,,5h[8:1],,6,4,5,,
5/1-5[12:1],,2,4,1x/5x,,,,
{24}8qq4[4:3],,,,,,,,,,,,
4,,,,,,,,,,,,
{24}8qq3[4:3],,,,,,,,,,,,
4,,,,,,,,,,,,
{24}8qq2[4:3],,,,,,,,,,,,
4,,,,,,,,,,,,
{24}8^5[8:1]*^3[8:1],,,,,,,,,,,,
2/4,,,5/7,,,1x/8x,,3x/6x,,,2bxh[6:1]/4bx,
{24},,,3,,,1,,1,7,,7,
5h[8:1],,,6,,6,1^6[8:1],,,,,,
{24}4h[4:1],,,,,,{48}A3,E3,E2h[24:5],,,,,,,,,,A5,E6,E7h[24:5],,,,,,,,,,{24}8x,,,,,,
{24}7h[8:1]/5,,,6,,,8,,8,2,,2,
4h[8:1],,,3,,3,8^3[8:1],,,,,,
{24}5,,,5,,,6,,6,2,,2,
8-4b[12:1],,,56,,1,8b,,,,,,
{24}6h/2xV46[2:1],,,,,,,,,,,,
7h,,,,,,,,,,,,
{24}8h/4xV68[2:1],,,,,,,,,,,,
1h,,,,,,,,,,,,
{24}6xV82[2:1]/2h,,,,,,,,,,,,
3h,,,,,,,,,{32},,4,5,
{24}4b,,,,,8b/7x,,,,2x/1b,,,
{16}5h[8:1]/4h[16:3],,,,{24}6,,,6,,,
{24}28,,,3,,3,4h[8:1],,,6,,,
71,,1,6,,6,5h[8:1],,,3,,,
{24}5bh[24:3]/4xh[8:1],,,,,1b/2x,,,,7x/8b,,,
3/6,,2,4,,7,5,,,2h[8:1],,,
{24}3h[8:1],,,4h[8:1],,,5h[8:1],,,6<5[16:4],,,
7h[2:1],,,,,,,,,,,,
{24}1x,,,,,,,,,,,,
6b/4b,,3h[12:1],,7h[12:1],,8h[12:1],,2h[12:1],,1,,
{48}7xV53[32:3],6,5h[24:5],,,,1x,8,7,,,,{24},,,8,,,
6p1b[12:1]/4-1b[12:1],,,,,,6/4,,,,,,
{48}2x/8,3,4h[24:5],,,,1x,2,3h[12:1],,,,{24},,,15,,,
7-4[12:1]/3-7[12:1],,,,,,7/3,,,,,,
{24}8/4,,,1,,,2<6[64:7]/3,,,4,,,
6-1[12:1]*qq4[32:3],,,,,,,,,,,,
{24}8/4,,8h[8:1],,,5h[6:1],7,,7,,,4h[6:1],
2,,2,,,3,5,,,8,,,
{48}1xV35[64:6]/7x,2,3h[24:5],,,,7x,8,1,,,,{24},,,1,,,
2q7b[32:3]/5p8b[32:3],,,,,,5/2,,,,,,
{24}6/2-6[8:1],,4/8,,,6,2,,,1,,,
8q5[32:3]/4^1[32:3],,,,,,8/4,,,,,,
{24}7/6,,,5,,,8/4-7[32:3],,,2-5^4-8[4:1],,,
4,,,2,,,,,,,,,
{24}4xz8b[16:11],,,,,,,,,,,,
,,,,,,,,,,,,
{48}2bxV46[96:10],3<7[96:8],4h[24:5],,,,1x,2,3,,,,{24},,,1,,,
2qq8b[12:1]/5^8b[12:1],,,,,,2/5,,,,,,
{48}7x/1x,6,5h[24:5],,,,8x,7,6h[12:1],,,,,,,,,,2x,3,4h[24:8],,,,
1xV75[96:10],2V86[96:8],3,,,,{24},,,,,,,,,
{24}1/5,,,8,,,7V13[64:7]/6,,,5,,,
3>7b[12:1]*p6b[32:3],,,,,,,,,,,,
{24}5/6h[24:5],,7p3[32:3],,,1,,,3,,,,
1/4,,,34,,,8,5,6,5,,,
{48}8x<4[64:6]/2x,7V53[96:8],6h[24:5],,,,1x,8,7,,,,{24},,,8,,,
6p1b[32:3]/2q7b[32:3],,,,,,2/6,,,,,,
{24}3/7-3[8:1],,1/5,,,3,7,,,8q1[32:6],,,
{48}3bx,4b,5b,6b,,,,,,,,,{24}8,,,,,,
{24}2/3,,,14,,,8/5-1[32:3],,,7-4-6-2[16:4]/6,,,
5,,,7,,,,,,,,,
{24}1,,,,,,1v1b[8:1],,,,,,
1-5b[96:7],,,,,,,,,,,,
