&title=One Room Sugar Life
&artist=Nanao Akari
&first=0.25000006
&des=Chance
&lv_5=13+
&inote_1=(180)
{1},{8}1,2,3,
&inote_5=(180)
{8},,,Cfh[8:3],,,,,{8}4,4,4/5,,5,5,4/5,,4,4,6/4,,5,5,5/3,,
,3h[8:1],2h[8:1],1h[8:1],8h[8:1],7h[8:1],6h[8:1],1w5b[4:1],,,,,
,E5,C,E1,8,8,8/1,,1,1,8/1,,8,8,2/8,,1,1,1/7,,
7-4[8:1],2-5[8:1],7-3[8:1],2-6[8:1],7-2[8:1],2w6b[8:1],7,2,,,,
Cfh[8:5]/E2,,E3,E4,E5,5b,,,,,,,,
5h[4:1],,B1/B2/E2,,4h[4:1],,B7/B8/E8,,6h[4:1],,B2/B3/E3,,3xh[8:1],4h[8:1],5h[8:1],6bh[8:1],
4h[4:1],,B7/B8/E8,,5h[4:1],,B1/B2/E2,,3h[4:1],,B6/B7/E7,,6xh[8:1],5h[8:1],4h[8:1],3bh[8:1],
5-8[8:1],4,,,5-1[8:1],3,,,5-2[8:1],2b,,,2xh[8:1],1h[8:1],8h[8:1],7h[8:1],
4-1[8:1],5,,,4-8[8:1],6,,,4-7[8:1],7b,,,7xh[8:1],8h[8:1],1h[8:1],2h[8:1],
6h[1:1],,3,,3,,3,,4,4/5,4-1[8:1]/5-8[8:1],,A4/A5,,,,
2h[1:1],,7,,7,,7,,7<4[4:2],2,1,8,8-4[8:1],,8b,,6,5,6,,3,4,3,,6^3[4:1],3,6/3^6[4:1],,3,,,
8/1,8^5[8:1]/1^4[8:1],,8/1,A3/A6,,5,4h[8:3],5,,5,4b/5b,,,E7`B6`B5`E5,E8`C`E4,E1`B1`B2`E3,
{16}3h[16:6],,,4,,,5h[16:5],,6,,,7h[16:5],,,8,,1h[16:6],,2x,3,4,5,6,7,8,,,8b,,,,
6,6h[16:6],,,5,,,4h[16:5],,3,,,3h[16:3],,,2,,8x,1,8,1,6x,7,6,7,5x,4,5,4,3x,2,3,2b,
{8}5-1[8:1],6,4-8[8:1],3,6-2[8:1],7,3-7[8:1],2,8-3[8:1],2,8-5[8:1],4,8-3b[8:1],2,8,4,
5-1[8:1],5,6-2[8:1],6,7-3[8:1],7,8w4b[8:1],8,,,,,1h[4:1],,2h[4:1],,3,,,{16}4b,4x,4x,,{8},,6,6h[4:2],1,B2,3,B4,,5pp5[4:3]/5qq5[4:3],,,,,,,,,,{16}4x,3,4,3,4,,{8}
2h[2:1],,7,6,5,B2f,4,3,4,B1,4,3,4,B8,4,3,4,B7,5-1[8:1],1b,,,7/6,6-1[8:1]/5,5-2[8:1]/4,6,5,,1h[4:2],,2,7,3b,,2-6[8:1],6,2,
B7,5,6,5,B8,5,6,5,B1,5,6,5,B2,4-8[8:1],8b,,6,6/5,5-8[8:1]/4,4-1[8:1]/3,5,4,,8h[4:2],7,2,6,3b,2-6[8:1],6w2b[8:1],{16}2,Cf,{8},
,,,,1^6[8:1]/2^5[8:1],{32},,,,E1/E3,E8/E4,E7/E5,,{8}5xh[4:1]/6xh[4:1],,{32}A6/A5/D6,E6/E7/E5/D5/D7,B6/B5/B4/B7/A7/A4,,{8},
7/8,8^3[8:1]/7^4[8:1],{32},,,,E1/E7,E2/E6,E3/E5,,{8}4xh[4:1]/3xh[4:1],,{32}A3/A4/D4,E4/E3/E5/D5/D3,B3/B4/B5/B2/A2/A5,,{8},
1/2,1^6[8:1]/2^5[8:1],,E1/E3,,{32}6,7x,8x,1x,2x,3x,4x,5x,6b/Cf,,,,{8},,,7/2,6/3,5s1[8:1]/4z8[8:1],,5/4,,8^5[8:1]/1,,4,{32}4-8[8:1],3x,2xh[16:5],,{8},4,
,8/1,1^4[8:1]/8,,5,{32}5-1[8:1],6x,7xh[16:5],,{8},5b,,
8/1,,E8/2h,E3/6h,E6/3h,,5/4,,,5-8[8:1]/4-1[8:1],,5/4,,8b/1b,,
B2,,6,,E2,,5,,E3,,7h[8:1],6h[8:1],5h[8:1],4h[8:1],3,,
B7,,3,,E8,,4,,E7,,2h[8:1],3h[8:1],4h[8:1],5h[8:1],6b,,
B2,B4,6,,E2,E3,5,,E1,E2,6-3[8:1],7-2[8:1],6,7,,,
3h[2:1],,,,4h[2:1],,,,5h[2:1],,,4,4,5b/4b,
{16}3x,4,3,2,3,4,3,2,3,4,3,2,3,4,3,2,6x,5,6,7,6,5,6,7,6,5,6,7,6,5,6,7,
1x,2,3,4,8,7,6,5,2,3,4,5,7,6,5,4,3b/2b,,3/2,,1/8,,1/8,,7/6,,7/6,,5/4,,5/4,,
8x,7,6,5,8,7,6,5,1,2,3,4,1,2,3,4,5/6,,1,,4/5,,8,,5/6,,1,,4/5,,8,,
2x,3,4,5,6,7,8,1,2/6x,5,4,3,2,1,8,7,6/Cf,,,,{4},,,{16}
6h[8:1],,E4,A4,5h[8:1],,E1,E8,6h[8:1],,E3,E4,5h[8:1],,A1,E1,
3xh[8:1],,E6,A5,4h[8:1],,E1,E2,3h[8:1],,E7,E6,4h[8:1],,A8,E1,
3>7[8:1],,7<3[8:1],,,,{32}A3,A2,A1,A8,A7,,{16},{8}2/6,1b/5b,,
{16}6x,5,7,4,8-5[8:1],3,1-4[8:1],2,8-4b[8:1],,,,,,,,
7h[8:1],,A1,E2,8h[8:1],,E6,E5,7h[8:1],,E2,E3,8h[8:1],,E5,A4,
2xh[8:1],,A8,E8,1h[8:1],,E4,E5,2h[8:1],,E8,E7,1h[8:1],,E5,A5,
2x,1,3,8,4,7,5,6,4x,7,3,8,2b,,,,1b,2,3,4,5,6,7,8,{32}1b,2x,3x,4x,5x,6x,7x,8x,1b/Cf,,{16},{8},5h[1:1],,4,4,4,4,4,4,4h[1:1],,5,5,5,5,5,5,{32}5b/D5,B4/B5/E6/E4,B3/B6,,{16},,7/8,,,,1/8,,,,1/2,,1-4b[8:1]/8-5b[8:1],,,,1/8,,{8},,
3s7z3[1:1]/5h[2:1],,,,,,,,6s2z6[1:1],6,,,4h[2:1],,,,,,3,4x,,
3h[8:3]/6,6,6,7-4[8:1],,7,2-5[8:1],,2,8,8b/5b,,,7/6,6/5,5/4h[4:3],,6,,7,,8,,8h[4:3]/4,,3,,2,,1,,8/1,7/8,6/7,5/6,4/5,3/4,2/3,1b-6[8:1]/2b-5[8:1],,1/2,,
3h[4:2],,B4,E2,B7,8-2[8:1],7,8,7,8-3[8:1],7,8,7,8-4[8:1],7,8,7,8,8-3[8:1]/7-4[8:1],1/2,8b/7b,,2-4[8:1],1-7[8:1],2-5[8:1],1-6[8:1],2pp6b[2:1],1,2,,1,8,7b,,
B5,E8,B2,1-7[8:1],2,1,2,1-6[8:1],2,1,2,1-5[8:1],2,1,2,1,1/2,8/7,1b/2bh[8:3],8-4b[8:1],7,{16}8,C,{8},3/4,3^8[8:1]/4^7[8:1],,D3/D5,,8/7,8-3[8:1]/7-4[8:1],,8b/7b,
,{32}3b,4x,5x,6x,7x,8x,1x,2x,3x/Cf,,{16},{8},,{32},,5x/6x,4x/7x,{8}3-6[8:1]/8,,3,8-5[8:1],,8,{8},{32},,4x/3x,5x/2x,{8}6-3[8:1]/1,,6,1-4[8:1],,1,,
6>4-8[8:2],3-1[8:1],,3b,A8/A1f,,8/1,,,,,4qq5[4:1]/6pp5[4:1],3/7,4/6,,
,{32},,3x/7x,2x/8x,{8}1-5[8:1],,1/2,3-7[8:1],,3,{8},{32},,6x/2x,7x/1x,{8}8-4[8:1],,8/7,6-2[8:1],,6,{8},4>8[4:1],,8-4[8:1],7,6b,,
3h[4:1]/7h[4:1],,,6v1[8:1]/3,,1w5[8:1],,1b,,
