&title=way home
&artist=Mono.
&first=-0.23
&des=盖哥教我写跳拍好不好TT
&clock_count=4
&lv_5=14
&des_5=
&inote_5=
(165){4},,,,,,{2}2b/4bh[4:3],
{4},6b,{2}7bh[8:3]/5xh[8:3],
{8}6/4,5/3,4/2-5b[8:1],{16}1,8,{4}2x,{8}7h[8:1],5,
6h[8:1],4,5pp4[8:3],{16}3,4,{2}2h[8:3],
{8}3,5,4,6,5-3[8:1],5,7-4[8:1],7,
{4}2-6[8:1],{8}5x,7,7h[4:1],5,4,{16}3,5,
{8}4h[12:1],6h[12:1],5pp2[8:3],7,{2}6xh[8:3],
{8}4-6[8:1],4,2-5[8:1],2,{4}7-3[8:1],{8}4,2h[4:1],
4,6h[4:1],5,3,4h[32:1],3h[32:1]/5h[32:1],4h[32:1]/6h[32:1],5h[32:1]/7h[32:1],
6h[32:1]/8h[32:1],7h[32:1]/1h[32:1],8h[32:1]/2h[4:3],{48}7x,6x,5x,4bx>6b[16:7],{4},,,{64},,{96},{32}D3/E3/A3,
D4,D5,D6,D7,D8,D1,D2,{8}5x-7[8:1]*-1[8:1],4x,{4}5b,
{8}8-4[8:1],7,8/3>8[8:1],2,6V42[16:3],7,6x,{16}1x,1xh[16:3],
{48},,,,,,{24}4x,,2,{12}5,{24}3,6,,4,{8}7b,5,6xV41[16:3],{16}5,5h[16:5],
,,,,,,{8}3,8x,4,6V48[16:3],{16}5,5h[16:5],
,,,,,,{8}7x,{4}6b/1b>3-5[16:3],{8}8,7,
7,{16}5,6,{8}4-6[8:1],3,2-5[8:1],1,7,8,
8b,6bx/5b,4bx/3b,{16}2b,1,{2}2V46[16:3],
{16}8bxh[16:3],,,5b,,4b/7b,,5b/3b>5b[16:5],{32},,,,,,,,,,,,,,,,A2,
B2,B6,A6,A5,E5,E4,A3,{4}8x,{8}2h[8:1],{16}4,4,{8}3h[8:1],5,
{4}6h[8:1]/4h[8:1],5/7h[8:1],{8}3,4qq3[4:1],5,6,
,,8<6[8:1],8,5-1[8:1],5,7,6,
1x,{16}5,3,4,2,1,3,8bV64[16:3],,,5,,,{8}3,
2,{16}2,1,3,8,4,7,{4}5h[8:1],6h[8:1]/4h[8:1],
3h[8:1],{8}2/4,3,{16}7,4,6,5,7,4,6,5,
8,3,6,5,7,4,3,2,{8}5x/1bh[8:1],5,4/2h[8:1],4,
3/5h[8:1],3,{24}5,6,{48}4,,,,,5bx-2[8:1],,,,,,,,,,,,{16}5b/7-4[8:1],,,,7b/1<3b[4:1],
,,,1b/5b,,,,8b,{48},,,,,,{24}2b/8b,3,4,5,6,7,8,1,2,
3,4,5,6,7,8,1,2,3,4,5,6,7,8,1,2,3,4,5,6,7,8,1,2,
3,4,5,6,7,8,1,2,3,4,5,6,{48}8bx,B8f,C,B4,{12}A4,{1},{4},,,{16},{48},{8}3h[8:3],
,,4,
{4}4h[2:1],5<3[24:11],{32},,,,,,,,,,,,,,,,A7,
B7,B3,A3,A4,E5,E6,A6,{4}8x,{8}1b/7bh[8:3],,,5,
6h[8:3],4,3,2,1h[4:1],5,4,{16}2,4,
{2}3<6[6:1],7xh[2:1],
5h[2:1],{4}3>5[16:7],E6,
E5,3bxh[8:3],{8},4,{4}2bh[8:1]/6bh[8:1],
1h[8:1]/7xh[8:1],8xh[8:1]/6h[8:1],{16}7/5x,,,6x/4,,,{8}5/3x,
4b,{16}3,5,{24}2b<3b[1:1],6,2,6,2,6,{2}Cf,
{6},,,6h[2:1],,5,
{3}5h[2:1],{6}4,4h[2:1],,3,
{3}3<6[4:1],{6}2,1>4[4:1],,7,
6<4[12:5],E5,E4,2x>4<4[2:1],,1,
{3}2>4<4[2:1],{6}1,2>4<7[4:1],{48},,,,,,,,,,{16}2x,3x,
{8}4x,4,5/3,6/2,{2}7bh[4:3]/1bh[4:3],
{16},,,,,7x,{48}2,3,4,5b<3[16:13]/8bx<5[16:7],{4},,,{16},,{24},{16}5,
4>6b[16:7],{4},,{16},,{32}A7,
B7,B3,A3,A4,E5,E6,A6,{8}1x,{2}8b/2bh[2:3],
{4},,4,5,
{8}7,{24}5,6,4,{4}8b,{12}1b,{24}1,5,,5,{8}2x-5>4-8[4:1],{16}4,4h[16:5],
,,,,,,{8}6,{12}1x,{24}1,5,,5,{8}3V51[16:3],{16}4,4h[16:5],
,,,,,,{8}2,{4}3b/8bV64[16:3],{8}1,2,
3,{24}5,4,6,{8}5-3[8:1],7,7-3[8:1],8,2-4[8:1],1-7[8:1],
2-6[8:1],1x-5[8:1],2,1,4x,3,2/5,1,
8/3,{24}7,,5,6pp5[4:1],5,{48}6,,,,,4b,,,,,,,,,,,,,,,{12}3,{24}3,4h[8:1],,,{12}2,
{24}2,5h[8:1],{96},,,,,,,,{32}1,8,7,6,5,4,3,2,{8}1-6[8:1]*v4[8:1],8,{4}1b,
{8}3x/5x,3/5,{12}6,{24}6,5,,5,{8}7,7,8/2,{24}3,,3,
{12}4,{24}4,2,,,{8}1/5h[8:1],{24}1,6/2,7/3,{8}4b/8b,4,{12}7,{24}7,5,,5,
{8}6V42[16:3],6,3,1,1b,{16}8x,3b-8[16:1]/7b-4[16:1],,,{8}7b/3b,
{24},,,1,,1,{12}4,{24}4,3,,5,{8}2,2,3/5,4/6,
7/5,{24}8,,8,{12}5,{24}5,6,{12}4,{8}7,8,{16}5,4,3,2,
{8}1b/6b,4b/2b,3b/5b,{24}6,5,7,{2}8bxh[2:1]/4bh[4:1],
{8}1b,{16}2-5[16:1]/6-1[16:1],6b/2b,,2bV86[16:9]/6bV42[16:9],,D1/E1f/E5/D5,,,,,,,,,,,,,,,,,{4}2h[8:1]/4h[8:1],
3h[8:1]/5h[8:1],
8h[8:1],{12}7h[8:1]/5h[8:1],{24},,4,3,{4}6/2b-5[8:1],2b/4-7[8:1],
4b/8-5[8:1]*-3[8:1],8b,{2}2h[4:1]/4h[4:1],
{8}1h[4:1]/7>5[1:1],,,,,6<1b[8:3],{32},,,,,,,,,,,,,,,,,D6,
D7,D8,D1,D2,D3,D4,{4}8bx/E5f/D5,{12}7,{24}7,5,,5,
{12}6,{24}6,3,,3,{12}4,{24}4,2,,2,{16}5x,6,7,8,1/2x,3,4,5,
{8}7h[8:1],5h[8:1],3h[8:1],1,{16}4x,5,6,7,8/1x,2,3,4,
{12}7,{24}7,5,,5,{12}6,{24}6,3,,3,{2}4>6[16:5],
{32}A7,B7,B3,A3,A4,E5,E6,A6,{4}8x,{16}1x,2,3,4,5/6x,7,8,1,
{12}3,{24}3,4,,4,{12}2,{24}2,6,,6,{16}8x,1,2,3,4/5x,6,7,8,
{8}2h[8:1],8h[8:1],6h[8:1],4,4,3/5,2/6,1/7,
{12}8,{24}8,2,,2,{32}6,5,4,3,2,1,8,7,{2}6bh[2:1]/1x>7b[8:3],
{48},,,,,,,,,,,,,,,,,,1b/5b,2/6,3/7,4/8bh[32:31],{96},{32}5,6,7,,1,2,3,4,5,6,7,,1,2,3,4,5,
6,7,,1,2,3,4,5,6,7,,1,2,3,{64}B8,C,B4,A4,
E
